Поиск

2021 Michael Wollny with Emile Parisien, Tim Lefebvre & Christian Lillinger - XXXX {ACT Music} [24-48]

2021 Michael Wollny with Emile Parisien, Tim Lefebvre & Christian Lillinger - XXXX {ACT Music} [24-48]
Стили:
Дата издания диска:
30 апреля 2021
Издатель (лейбл):
Битрейт аудио:
lossless
Доп. инфо:

Формат записи/Источник записи: [TR24][OF]
Наличие водяных знаков: Нет
Год издания: 2021
Продолжительность: 00:44:38
Наличие сканов в содержимом раздачи: Буклет PDF
Контейнер: FLAC (*.flac)
Тип рипа: tracks
Разрядность: 24/48
Формат: PCM
Количество каналов: 2.0
Источник (релизер): highresaudio.com

Лог проверки качества
foobar2000 1.4.8 / Dynamic Range Meter 1.1.1
log date: 2021-04-29 15:47:09

--------------------------------------------------------------------------------
Analyzed: Michael Wollny with Emile Parisien, Tim Lefebvre & Christian Lillinger / XXXX
--------------------------------------------------------------------------------

DR         Peak         RMS     Duration Track
--------------------------------------------------------------------------------
DR10      -0.59 dB   -13.15 dB      4:15 01-Somewhere Around Barstow
DR7       -0.60 dB   -10.72 dB      4:48 02-Dick Laurent Is Dead
DR11      -0.62 dB   -14.25 dB      5:33 03-Too Bright in Here
DR11      -0.62 dB   -15.30 dB      2:00 04-Grandmother's Hammer
DR8       -0.59 dB   -12.16 dB      5:03 05-The Haul
DR9       -0.62 dB   -13.21 dB      3:05 06-Find the Fish
DR8       -0.57 dB   -11.26 dB      4:00 07-Doppler Fx
DR7       -0.36 dB    -9.95 dB      6:51 08-Michael vs. Michael
DR10      -0.59 dB   -12.58 dB      3:48 09-Nörvenich Lounge
DR7       -0.60 dB   -11.68 dB      5:22 10-Nostalgia for the Light
--------------------------------------------------------------------------------

Number of tracks:  10
Official DR value: DR9
Samplerate:        48000 Hz
Channels:          2
Bits per sample:   24
Bitrate:           1542 kbps
Codec:             FLAC
================================================================================
No seeders - write personal message to M0p94ok. Any questions - support@pro-jazz.com.
Нет сидеров - пишите в личку M0p94ok. Есть вопросы - support@pro-jazz.com
22:16
69
Нет комментариев. Ваш будет первым!