Поиск

1958 Morgana King - Let Me Love You (2019) {RevOla} [24-44.1]

1958 Morgana King - Let Me Love You (2019) {RevOla} [24-44.1]
Стили:
Дата записи диска:
1 июля - 30 июля 1958
Дата переиздания диска:
2 июля 2019
Издатель (лейбл):
Битрейт аудио:
lossless
Доп. инфо:

Формат записи/Источник записи: [TR24][OF]
Издание: Remastered
Год издания/переиздания диска: 1960/2019
Продолжительность: 00:36:21
Наличие сканов в содержимом раздачи: Нет

Контейнер: FLAC (*.flac)
Тип рипа: tracks
Разрядность: 24/44,1
Количество каналов: 2.0Источник (релизер): Qobuz

Лог проверки качества
foobar2000 1.4.3 / Dynamic Range Meter 1.1.1
log date: 2021-04-07 17:55:54

--------------------------------------------------------------------------------
Analyzed: Morgana King / Let Me Love You
--------------------------------------------------------------------------------

DR         Peak         RMS     Duration Track
--------------------------------------------------------------------------------
DR10      -3.00 dB   -16.57 dB      1:58 01, 01-All or Nothing at All (Remastered)
DR11      -4.24 dB   -20.31 dB      3:30 02, 02-Let Me Love You (Remastered)
DR10      -3.54 dB   -16.74 dB      2:22 03, 03-I Love You Much Too Much (Remastered)
DR10      -4.61 dB   -19.33 dB      2:33 04, 04-I'll Never Smile Again (Remastered)
DR9       -4.10 dB   -16.92 dB      2:37 05, 05-I'll Remember April (Remastered)
DR8       -4.38 dB   -15.28 dB      2:25 06, 06-You Always Hurt the One You Love (Remastered)
DR10      -4.47 dB   -17.23 dB      2:36 07, 07-The End of a Love Affair (Remastered)
DR10      -4.03 dB   -16.90 dB      3:35 08, 08-Mad About Him, Sad Without Him (Remastered)
DR11      -3.80 dB   -18.44 dB      4:02 09, 09-That Ole Devil Called Love (Remastered)
DR10      -3.41 dB   -16.07 dB      2:46 10, 10-Undecided (Remastered)
DR10      -5.02 dB   -17.58 dB      3:06 11, 11-You Don't Know What Love Is (Remastered)
DR10      -5.31 dB   -19.36 dB      2:50 12, 12-I've Found a New Baby (Fast Version Remastered)
DR9       -5.25 dB   -16.65 dB      2:07 13, 13-I've Found a New Baby (Slow Version Remastered)
--------------------------------------------------------------------------------

Number of tracks:  13
Official DR value: DR10

Samplerate:        44100 Hz
Channels:          2
Bits per sample:   24
Bitrate:           1149 kbps
Codec:             FLAC
================================================================================
No seeders - write personal message to M0p94ok. Any questions - support@pro-jazz.com.
Нет сидеров - пишите в личку M0p94ok. Есть вопросы - support@pro-jazz.com
10:17
42
Нет комментариев. Ваш будет первым!