Поиск

2021 Christian McBride - The Q Sessions {Mack Avenue} [24-192]

2021 Christian McBride - The Q Sessions {Mack Avenue} [24-192]
Стили:
Издатель (лейбл):
Битрейт аудио:
lossless
Доп. инфо:

Формат записи/Источник записи: [TR24][OF]
Наличие водяных знаков: Нет
Год издания: 2021
Продолжительность: 00:31:01
Наличие сканов в содержимом раздачи: Только обложка альбома
Контейнер: FLAC (*.flac)
Тип рипа: tracks
Разрядность: 24/192
Формат: PCM
Количество каналов: 2.0
Источник (релизер): qobuz.com

Лог проверки качества
foobar2000 1.4.8 / Dynamic Range Meter 1.1.1
log date: 2021-04-30 15:58:10

--------------------------------------------------------------------------------
Analyzed: Christian McBride / The Q Sessions
--------------------------------------------------------------------------------

DR         Peak         RMS     Duration Track
--------------------------------------------------------------------------------
DR10       0.00 dB   -12.12 dB     11:19 01-Blues Connotation
DR10       0.00 dB   -11.94 dB     14:47 02-On Green Dolphin Street
DR9        0.00 dB   -11.03 dB      4:57 03-Brouhaha
--------------------------------------------------------------------------------

Number of tracks:  3
Official DR value: DR10
Samplerate:        192000 Hz
Channels:          2
Bits per sample:   24
Bitrate:           5014 kbps
Codec:             FLAC
================================================================================
No seeders - write personal message to M0p94ok. Any questions - support@pro-jazz.com.
Нет сидеров - пишите в личку M0p94ok. Есть вопросы - support@pro-jazz.com
12:13
52
Нет комментариев. Ваш будет первым!