Поиск

2021 Laura Prince - Peace of Mine {CQFD} [24-88.2]

2021 Laura Prince - Peace of Mine {CQFD} [24-88.2]
Стили:
Битрейт аудио:
lossless
Доп. инфо:

Формат записи/Источник записи: [TR24][OF]
Наличие водяных знаков: Нет
Год издания: 2021
Издатель (лейбл): CQFD
Продолжительность: 00:35:08
Наличие сканов в содержимом раздачи: Только обложка альбома
Контейнер: FLAC (*.flac)
Тип рипа: tracks
Разрядность: 24/88.2
Формат: PCM
Количество каналов: 2.0
Источник (релизер): qobuz.com

Лог проверки качества
foobar2000 1.4.8 / Dynamic Range Meter 1.1.1
log date: 2021-04-30 16:30:25

--------------------------------------------------------------------------------
Analyzed: Laura Prince / Peace of Mine
--------------------------------------------------------------------------------

DR         Peak         RMS     Duration Track
--------------------------------------------------------------------------------
DR8       -1.97 dB   -13.89 dB      4:23 01-Flying Until
DR8       -3.04 dB   -14.98 dB      3:57 02-Save Me
DR11      -1.97 dB   -16.25 dB      4:13 03-In Your Eyes
DR8       -1.97 dB   -13.05 dB      2:38 04-Musical Inspiration
DR7       -2.37 dB   -13.12 dB      3:57 05-Scared of Dark
DR8       -1.97 dB   -15.63 dB      3:31 06-High in Love
DR7       -1.97 dB   -12.68 dB      4:16 07-Amazonia
DR10      -1.97 dB   -16.03 dB      3:12 08-Peace of Mine
DR6       -2.40 dB   -12.04 dB      5:03 09-So Unconditional
--------------------------------------------------------------------------------

Number of tracks:  9
Official DR value: DR8
Samplerate:        88200 Hz
Channels:          2
Bits per sample:   24
Bitrate:           2655 kbps
Codec:             FLAC
================================================================================
No seeders - write personal message to M0p94ok. Any questions - support@pro-jazz.com.
Нет сидеров - пишите в личку M0p94ok. Есть вопросы - support@pro-jazz.com
17:26
41
Нет комментариев. Ваш будет первым!