Вы используете незарегистрированную версию компонента "Вкладки"!

Поиск

2021 Isfar Sarabski - Planet {Warner Music} [24-88.2]

2021 Isfar Sarabski - Planet {Warner Music} [24-88.2]
Дата издания диска:
30 апреля 2021
Издатель (лейбл):
Битрейт аудио:
lossless
Доп. инфо:

Формат записи/Источник записи: [TR24][OF]
Наличие водяных знаков: Нет
Год издания/переиздания диска: 2021
Продолжительность: 01:00:37
Наличие сканов в содержимом раздачи: Буклет PDF
Источник (релизер): qobuz

Контейнер: FLAC (*.flac)
Тип рипа: tracks
Разрядность: 24/88,2
Формат: PCM
Количество каналов: 2.0

Лог проверки качества
foobar2000 1.6 / Dynamic Range Meter 1.1.1
log date: 2021-04-30 17:08:49

--------------------------------------------------------------------------------
Analyzed: Isfar Sarabski / Planet
--------------------------------------------------------------------------------

DR         Peak         RMS     Duration Track
--------------------------------------------------------------------------------
DR10      -0.78 dB   -14.33 dB      6:12 01-Deja Vu
DR10      -0.80 dB   -15.27 dB      5:57 02-Limping Stranger
DR10      -0.80 dB   -14.31 dB      5:27 03-Swan Lake
DR11      -0.80 dB   -14.75 dB      4:48 04-Prelude
DR10      -0.80 dB   -13.41 dB      4:40 05-Transit
DR10      -0.80 dB   -16.32 dB      7:32 06-The Edge
DR13      -1.43 dB   -19.74 dB      6:40 07-Planet (Piano Solo)
DR10      -0.80 dB   -13.66 dB      8:37 08-G-Man
DR10      -0.80 dB   -13.09 dB      5:32 09-Novruz
DR10      -0.80 dB   -14.57 dB      5:12 10-Planet
--------------------------------------------------------------------------------

Number of tracks:  10
Official DR value: DR10

Samplerate:        88200 Hz
Channels:          2
Bits per sample:   24
Bitrate:           2361 kbps
Codec:             FLAC
================================================================================
Any questions - support@pro-jazz.com. Есть вопросы - support@pro-jazz.com
21:55
63
Нет комментариев. Ваш будет первым!