Поиск

1963 Curtis Amy, Dupree Bolton - Katanga (1998) {Blue Note} [24-96]

1963 Curtis Amy, Dupree Bolton - Katanga (1998) {Blue Note} [24-96]
Место записи:
Pacific Jazz Studios, LA, CA
Издатель (лейбл):
Номер по каталогу:
A92
Битрейт аудио:
lossless
Доп. инфо:

Формат записи/Источник записи: [TR24][OF]
Издание: Remastered
Год издания/переиздания диска: 1963/1998
Продолжительность: 00:35:20
Наличие сканов в содержимом раздачи: Нет

Контейнер: FLAC (*.flac)
Тип рипа: tracks
Разрядность: 24/96
Количество каналов: 2.0

Источник (релизер): HDTracks

Лог проверки качества
foobar2000 1.4.3 / Dynamic Range Meter 1.1.1
log date: 2021-04-23 17:22:34

--------------------------------------------------------------------------------
Analyzed: Curtis Amy / Katanga (Remastered) (Blue Note Tone Poet Series)
--------------------------------------------------------------------------------

DR         Peak         RMS     Duration Track
--------------------------------------------------------------------------------
DR11      -7.68 dB   -22.35 dB      3:06 01-Katanga (Remastered 1998)
DR13      -5.86 dB   -23.41 dB      3:50 02-Lonely Woman (Remastered 1998)
DR13      -6.34 dB   -23.11 dB     10:26 03-Native Land (Remastered 1998)
DR14      -5.91 dB   -23.10 dB      6:15 04-Amyable (Remastered 1998)
DR13      -7.25 dB   -24.86 dB      6:01 05-You Don't Know What Love Is (Remastered 1998)
DR13      -6.59 dB   -22.44 dB      6:06 06-A Shade Of Brown (Remastered 1998)
--------------------------------------------------------------------------------

Number of tracks:  6
Official DR value: DR13

Samplerate:        96000 Hz
Channels:          2
Bits per sample:   24
Bitrate:           3086 kbps
Codec:             FLAC
================================================================================
No seeders - write personal message to M0p94ok. Any questions - support@pro-jazz.com.
Нет сидеров - пишите в личку M0p94ok. Есть вопросы - support@pro-jazz.com
11:37
47
Нет комментариев. Ваш будет первым!