Вы используете незарегистрированную версию компонента "Вкладки"!

Поиск

1988 Peter Finger - Niemandsland (2011) {Acoustic Music} [24-44,1]

1988 Peter Finger - Niemandsland (2011) {Acoustic Music} [24-44,1]
Дата переиздания диска:
11 марта 2011
Битрейт аудио:
lossless
Лог проверки качества
foobar2000 1.3.9 / Замер динамического диапазона (DR) 1.1.1
Дата отчёта:  2020-02-04 10:14:14

--------------------------------------------------------------------------------
Анализ:   Peter Finger / Niemandsland
--------------------------------------------------------------------------------

DR         Пики         RMS           Продолжительность трека
--------------------------------------------------------------------------------
DR17      -0.13 дБ   -20.69 дБ      3:43 01-Gehemnis Eines Augenblicks
DR13       0.00 дБ   -17.35 дБ      5:10 02-Der Traumtänzer
DR13      -0.71 дБ   -17.47 дБ      5:08 03-Ein Abend Im August
DR16       0.00 дБ   -18.68 дБ      4:42 04-Vive La Vie
DR14      -0.83 дБ   -18.69 дБ      5:42 05-Niemandsland
DR14      -0.65 дБ   -19.25 дБ      2:50 06-Für Dich
DR14      -0.15 дБ   -16.60 дБ      5:42 07-Die Farben Der Nacht
DR8       -1.95 дБ   -13.27 дБ      7:50 08-Irische Landschaften
DR13       0.00 дБ   -16.42 дБ      3:52 09-Ein Blick Zurück
DR12      -0.09 дБ   -15.91 дБ      1:33 10-Aus, Der Traum
--------------------------------------------------------------------------------

Количество треков: 10
Реальные значения DR: DR13

Частота:   44100 Гц
Каналов:   2
Разрядность:   24
Битрейт:   1340 кбит/с
Кодек:   FLAC
================================================================================
Any questions - support@pro-jazz.com. Есть вопросы - support@pro-jazz.com
13:35
50
Нет комментариев. Ваш будет первым!