Поиск

2012 Trio Bravo+ - Trio Bravo+ {Ozella} [24-44.1]

2012 Trio Bravo+ - Trio Bravo+ {Ozella} [24-44.1]
Место записи:
Studio P1, Berlin, Germany
Дата издания диска:
10 февраля 2012
Издатель (лейбл):
Номер по каталогу:
OZ 037
Носитель:
WEB
Формат:
PCM
Тип рипа:
tracks
Контейнер:
FLAC (*.flac)
Количество каналов:
2.0
Разрядность/ЧД:
24/44,1
Битрейт аудио:
lossless
Время звучания:
01:06:04
Наличие сканов:
только обложка
Страна-производитель диска (релиза):
Germany
Лог проверки качества
foobar2000 1.3.9 / Замер динамического диапазона (DR) 1.1.1
Дата отчёта:  2020-02-04 10:15:27

--------------------------------------------------------------------------------
Анализ:   Trio Bravo+ / Trio Bravo+
--------------------------------------------------------------------------------

DR         Пики         RMS           Продолжительность трека
--------------------------------------------------------------------------------
DR8       -0.50 дБ   -12.10 дБ      4:11 01-Hommage An Shanghai Nr. 1
DR9       -0.50 дБ   -13.49 дБ      3:54 02-Darf Ich Bitten
DR9       -0.50 дБ   -12.53 дБ      2:57 03-Wiener Würstchen
DR9       -0.50 дБ   -11.93 дБ      3:37 04-Rondo Ukraine
DR8       -0.50 дБ   -11.08 дБ      3:50 05-Panzerkreuzer Potemkin
DR11      -0.50 дБ   -15.16 дБ      3:26 06-Paramela
DR9       -0.50 дБ   -11.19 дБ      3:19 07-Kiga
DR11      -0.50 дБ   -16.14 дБ      4:11 08-Ta-Ra-Ra
DR11      -0.50 дБ   -15.15 дБ      3:38 09-Troika
DR9       -0.50 дБ   -11.74 дБ      3:04 10-Montag
DR11      -0.91 дБ   -15.44 дБ      2:16 11-Trauriger Clown
DR11      -0.50 дБ   -15.02 дБ      3:39 12-Chanson Triste
DR10      -0.50 дБ   -14.29 дБ      4:59 13-Liebesleid
DR8       -0.50 дБ   -11.97 дБ      5:00 14-Fernes Irland
DR8       -0.50 дБ    -9.52 дБ      1:38 15-Punk
DR9       -0.50 дБ   -11.66 дБ      3:00 16-Hommage An Shanghai Nr. 2
DR11      -0.50 дБ   -14.78 дБ      2:49 17-Pizzicato
DR9       -0.60 дБ   -10.99 дБ      3:16 18-September
DR10      -0.50 дБ   -14.17 дБ      3:20 19-Wolga-Flüsschen
--------------------------------------------------------------------------------

Количество треков: 19
Реальные значения DR: DR9

Частота:   44100 Гц
Каналов:   2
Разрядность:   24
Битрейт:   1375 кбит/с
Кодек:   FLAC
================================================================================
No seeders - write personal message to M0p94ok. Any questions - support@pro-jazz.com.
Нет сидеров - пишите в личку M0p94ok. Есть вопросы - support@pro-jazz.com
13:58
50
Нет комментариев. Ваш будет первым!