Поиск

2020 Risa Minami - Risa Plays Jazz {King} [24-96]

2020 Risa Minami - Risa Plays Jazz {King} [24-96]
Стили:
Издатель (лейбл):
Номер по каталогу:
KICJ-838
Битрейт аудио:
lossless
Доп. инфо:

Формат записи/Источник записи: [TR24][OF]
Наличие водяных знаков: Нет
Год издания/переиздания диска: 2020.03.04
Продолжительность: 51:57
Наличие сканов в содержимом раздачи: Только обложка альбома

Контейнер: FLAC (*.flac)
Тип рипа: tracks
Разрядность: 24/96
Формат: PCM
Количество каналов: 2.0

Источник (релизер): mora.jp

Лог проверки качества
foobar2000 1.6 beta 11 / Dynamic Range Meter 1.1.1
log date: 2020-09-26 11:48:56

--------------------------------------------------------------------------------
Analyzed: 南里沙 / RISA Plays JAZZ
--------------------------------------------------------------------------------

DR         Peak         RMS     Duration Track
--------------------------------------------------------------------------------
DR9       -0.10 dB   -10.48 dB      4:19 01-The Shadow of Your Smile
DR9       -0.10 dB   -11.81 dB      5:57 02-Autumn Leaves
DR7       -0.10 dB    -9.91 dB      5:18 03-Moanin'
DR9       -0.10 dB   -11.59 dB      4:50 04-Chelsea Bridge
DR8       -0.10 dB   -10.54 dB      5:17 05-Satin Doll
DR9       -0.10 dB   -11.20 dB      5:07 06-When I Fall in Love
DR8       -0.10 dB   -10.14 dB      3:57 07-Stella by Starlight
DR8       -0.10 dB   -10.32 dB      5:02 08-Summertime
DR10      -0.10 dB   -12.80 dB      6:41 09-My One and Only Love
DR7       -0.10 dB    -9.01 dB      5:36 10-The Way You Look Tonight
--------------------------------------------------------------------------------

Number of tracks:  10
Official DR value: DR9

Samplerate:        96000 Hz
Channels:          2
Bits per sample:   24
Bitrate:           4616 kbps
Codec:             FLAC
================================================================================
No seeders - write personal message to M0p94ok. Any questions - support@pro-jazz.com.
Нет сидеров - пишите в личку M0p94ok. Есть вопросы - support@pro-jazz.com
15:49
59
Нет комментариев. Ваш будет первым!