Вы используете незарегистрированную версию компонента "Вкладки"!

Поиск

1962 The Three Sounds - Black Orchid (2020) {RevOla} [24-44.1]

1962 The Three Sounds - Black Orchid (2020) {RevOla} [24-44.1]
Стили:
Дата переиздания диска:
31 января 2020
Издатель (лейбл):
Битрейт аудио:
lossless
Доп. инфо:

Формат записи/Источник записи: [TR24][OF]
Издание: Remastered
Год издания/переиздания диска: 1962/2020
Продолжительность: 01:09:53
Наличие сканов в содержимом раздачи: Нет

Контейнер: FLAC (*.flac)
Тип рипа: tracks
Разрядность: 24/44,1
Количество каналов: 2.0

Источник (релизер): Qobuz

Лог проверки качества
foobar2000 1.4.6 / Dynamic Range Meter 1.1.1
log date: 2021-04-22 21:53:09

--------------------------------------------------------------------------------
Analyzed: The Three Sounds / Black Orchid
--------------------------------------------------------------------------------

DR         Peak         RMS     Duration Track
--------------------------------------------------------------------------------
DR12       0.00 dB   -14.52 dB      5:24 01-Black Orchid (Remastered)
DR10       0.00 dB   -12.20 dB      6:44 02-A Foggy Day (Remastered)
DR12       0.00 dB   -15.13 dB      5:29 03-For All We Know (Remastered)
DR11       0.00 dB   -12.44 dB      3:44 04-Oh Well Oh Well (Remastered)
DR13      -0.03 dB   -16.26 dB      5:34 05-At Last (Remastered)
DR10       0.00 dB   -12.90 dB      5:43 06-Secret Love (Remastered)
DR11       0.00 dB   -13.80 dB      5:06 07-Don't Go Don't Go (Remastered)
DR12       0.00 dB   -14.52 dB      4:41 08-Saucer Eyes (Remastered)
DR13       0.00 dB   -14.99 dB      4:37 09-Babe's Blues (Remastered)
DR14       0.00 dB   -16.48 dB      4:55 10-Over The Rainbow (Remastered)
DR10       0.00 dB   -11.94 dB      5:41 11-Tadd's Delight (Remastered)
DR11       0.00 dB   -12.85 dB      4:20 12-Azule Serape (Remastered)
DR10       0.00 dB   -11.51 dB      3:51 13-For Dancers Only (Remastered)
DR10       0.00 dB   -12.09 dB      4:09 14-Nature Boy (Remastered)
--------------------------------------------------------------------------------

Number of tracks:  14
Official DR value: DR11

Samplerate:        44100 Hz
Channels:          2
Bits per sample:   24
Bitrate:           1585 kbps
Codec:             FLAC
================================================================================
Any questions - support@pro-jazz.com. Есть вопросы - support@pro-jazz.com
19:40
61
Нет комментариев. Ваш будет первым!