Поиск

1975 Richard "Groove" Holmes - Six Million Dollar Man (2016) {Ace} [24-96]

1975 Richard "Groove" Holmes - Six Million Dollar Man (2016) {Ace} [24-96]
Стили:
Битрейт аудио:
lossless
Доп. инфо:

Формат записи/Источник записи: [TR24][OF]
Издание: Remastered
Год издания/переиздания диска: 1975/2016
Издатель (лейбл): Ace Records
Продолжительность: 00:40:15
Наличие сканов в содержимом раздачи: Нет

Контейнер: FLAC (*.flac)
Тип рипа: tracks
Разрядность: 24/96
Количество каналов: 2.0

Источник (релизер): Qobuz

Лог проверки качества
foobar2000 1.4.3 / Dynamic Range Meter 1.1.1
log date: 2021-04-28 14:12:44

--------------------------------------------------------------------------------
Analyzed: Richard Groove Holmes / Six Million Dollar Man
--------------------------------------------------------------------------------

DR         Peak         RMS     Duration Track
--------------------------------------------------------------------------------
DR12      -4.35 dB   -18.28 dB      5:30 01-Disc-O-Mite
DR11      -5.20 dB   -18.44 dB      5:21 02-Salsa De Alma
DR10      -6.44 dB   -18.86 dB      3:30 03-Once Is Not Enough
DR13      -4.11 dB   -18.79 dB      4:47 04-Dumpy Mama
DR10      -5.27 dB   -16.98 dB      6:05 05-Six Million Dollar Man Theme
DR12      -4.12 dB   -18.04 dB      4:15 06-Double Scale
DR11      -4.91 dB   -17.59 dB      3:42 07-125th St and 7th Ave
DR12      -4.67 dB   -18.13 dB      7:07 08-Mama's Groove
--------------------------------------------------------------------------------

Number of tracks:  8
Official DR value: DR11

Samplerate:        96000 Hz
Channels:          2
Bits per sample:   24
Bitrate:           2880 kbps
Codec:             FLAC
================================================================================
No seeders - write personal message to M0p94ok. Any questions - support@pro-jazz.com.
Нет сидеров - пишите в личку M0p94ok. Есть вопросы - support@pro-jazz.com
16:55
48
Нет комментариев. Ваш будет первым!