Вы используете незарегистрированную версию компонента "Вкладки"!

Поиск

1958 Michel Legrand - Legrand "Live" Jazz (2019) {Gryphon} [24-44.1]

1958 Michel Legrand - Legrand "Live" Jazz (2019) {Gryphon} [24-44.1]
Стили:
Битрейт аудио:
lossless
Доп. инфо:

Формат записи/Источник записи: [TR24][OF]
Год издания/переиздания диска: 1958/2019
Издатель (лейбл): Gryphon Records
Продолжительность: 00:58:31
Наличие сканов в содержимом раздачи: Нет

Контейнер: FLAC (*.flac)
Тип рипа: tracks
Разрядность: 24/44,1
Количество каналов: 2.0

Источник (релизер): HIGHRESAUDIO

Лог проверки качества
foobar2000 1.4.3 / Dynamic Range Meter 1.1.1
log date: 2021-05-02 11:42:36

--------------------------------------------------------------------------------
Analyzed: Michel Legrand / Legrand "Live" Jazz
--------------------------------------------------------------------------------

DR         Peak         RMS     Duration Track
--------------------------------------------------------------------------------
DR13      -1.20 dB   -17.08 dB     15:05 01-Watch What Happens
DR11      -1.20 dB   -15.63 dB      9:22 02-You Must Believe in Spring
DR12      -1.20 dB   -16.58 dB      8:00 03-Friday Fugue
DR12      -1.20 dB   -17.58 dB      5:28 04-Once Upon a Summertime
DR12      -1.20 dB   -16.25 dB      5:30 05-J and B
DR13      -1.20 dB   -18.22 dB      5:13 06-The Saddest Thing of All
DR11      -1.20 dB   -14.98 dB      9:56 07-Splittons
--------------------------------------------------------------------------------

Number of tracks:  7
Official DR value: DR12

Samplerate:        44100 Hz
Channels:          2
Bits per sample:   24
Bitrate:           1517 kbps
Codec:             FLAC
================================================================================
Any questions - support@pro-jazz.com. Есть вопросы - support@pro-jazz.com
19:40
73
Нет комментариев. Ваш будет первым!