Вы используете незарегистрированную версию компонента "Вкладки"!

Поиск

2013 Christian McBride Trio - Out Here {Mack Avenue} [24-96]

2013 Christian McBride Trio - Out Here {Mack Avenue} [24-96]
Место записи:
Avatar Studios, New York City, NY, USA
Дата издания диска:
6 августа 2013
Издатель (лейбл):
Битрейт аудио:
lossless
Доп. инфо:

Формат записи/Источник записи: [TR24][OF]
Год издания/переиздания диска: 2013
Продолжительность: 01:05:00
Наличие сканов в содержимом раздачи: Нет

Контейнер: FLAC (*.flac)
Тип рипа: tracks
Разрядность: 24/96
Количество каналов: 2.0

Источник (релизер): HDTracks

Лог проверки качества
foobar2000 1.4.3 / Dynamic Range Meter 1.1.1
log date: 2021-05-02 18:51:38

--------------------------------------------------------------------------------
Analyzed: Christian McBride Trio / Out Here
--------------------------------------------------------------------------------

DR         Peak         RMS     Duration Track
--------------------------------------------------------------------------------
DR18       0.00 dB   -22.39 dB      8:24 01-Ham Hocks and Cabbage
DR14       0.00 dB   -16.23 dB      4:03 02-Hallelujah Time
DR18      -0.03 dB   -23.38 dB      8:27 03-I Guess I'll Have to Forget
DR16       0.00 dB   -19.87 dB      6:42 04-Easy Walker
DR12       0.00 dB   -15.76 dB      9:20 05-My Favorite Things
DR15       0.00 dB   -18.52 dB      7:41 06-East of the Sun (And West of the Moon)
DR15       0.00 dB   -18.18 dB      5:39 07-Cherokee
DR14       0.00 dB   -18.52 dB      8:28 08-I Have Dreamed
DR13       0.00 dB   -15.55 dB      6:18 09-Who's Making Love
--------------------------------------------------------------------------------

Number of tracks:  9
Official DR value: DR15

Samplerate:        96000 Hz
Channels:          2
Bits per sample:   24
Bitrate:           2751 kbps
Codec:             FLAC
================================================================================
Any questions - support@pro-jazz.com. Есть вопросы - support@pro-jazz.com
00:01
60
Нет комментариев. Ваш будет первым!