Поиск

1962 Ernestine Anderson - Swings The Penthouse (2019) {RevOla} [24-44.1]

1962 Ernestine Anderson - Swings The Penthouse (2019) {RevOla} [24-44.1]
Стили:
Дата переиздания диска:
22 октября 2019
Издатель (лейбл):
Битрейт аудио:
lossless
Доп. инфо:

Формат записи/Источник записи: [TR24][OF]
Издание: Remastered
Год издания/переиздания диска: 1962/2019
Продолжительность: 00:44:10
Наличие сканов в содержимом раздачи: Нет
Контейнер: FLAC (*.flac)
Тип рипа: tracks
Разрядность: 24/44,1
Количество каналов: 2.0

Источник (релизер): Qobuz

Лог проверки качества
foobar2000 1.4.3 / Dynamic Range Meter 1.1.1
log date: 2021-05-03 17:57:32

--------------------------------------------------------------------------------
Analyzed: Ernestine Anderson / Swings The Penthouse
--------------------------------------------------------------------------------

DR         Peak         RMS     Duration Track
--------------------------------------------------------------------------------
DR12       0.00 dB   -14.20 dB      3:37 01-You Make Me Feel So Young (Remastered)
DR11       0.00 dB   -13.85 dB      2:09 02-It Could Happen To You (Remastered)
DR12      -0.04 dB   -14.06 dB      2:22 03-I Fall In Love To Easily (Remastered)
DR12       0.00 dB   -14.03 dB      3:50 04-On Green Dolphin Street (Remastered)
DR12      -0.08 dB   -14.66 dB      3:23 05-Time After Time (Remastered)
DR11      -0.02 dB   -12.84 dB      3:32 06-I've Got The World On A String (Remastered)
DR13       0.00 dB   -16.31 dB      5:29 07-Little Girl Blue (Remastered)
DR11      -0.01 dB   -12.75 dB      3:13 08-Just In Time (Remastered)
DR11      -0.01 dB   -12.96 dB      2:43 09-This Can't Be Love (Remastered)
DR11       0.00 dB   -13.77 dB      3:41 10-Gone With The Wind (Remastered)
DR12      -0.12 dB   -15.01 dB      4:26 11-Angel Eyes (Remastered)
DR11      -0.03 dB   -13.34 dB      2:15 12-There Will Never Be Another You (Remastered)
DR12       0.00 dB   -14.21 dB      3:33 13-Honeysuckle Rose (Remastered)
--------------------------------------------------------------------------------

Number of tracks:  13
Official DR value: DR12

Samplerate:        44100 Hz
Channels:          2
Bits per sample:   24
Bitrate:           1320 kbps
Codec:             FLAC
================================================================================
No seeders - write personal message to M0p94ok. Any questions - support@pro-jazz.com.
Нет сидеров - пишите в личку M0p94ok. Есть вопросы - support@pro-jazz.com
12:55
45
Нет комментариев. Ваш будет первым!