Поиск

1966 Maynard Ferguson and His Orchestra - Ridin' High (2004) {Warner Music Group} [24-192]

1966 Maynard Ferguson and His Orchestra - Ridin' High (2004) {Warner Music Group} [24-192]
Издатель (лейбл):
Битрейт аудио:
lossless
Доп. инфо:

Формат записи/Источник записи: [TR24][OF]
Издание: Remastered
Год издания/переиздания диска: 1966/2004
Продолжительность: 00:36:13
Наличие сканов в содержимом раздачи: Нет
Контейнер: FLAC (*.flac)
Тип рипа: tracks
Разрядность: 24/192
Количество каналов: 2.0

Источник (релизер): HDTracks

Лог проверки качества
foobar2000 1.4.3 / Dynamic Range Meter 1.1.1
log date: 2021-04-24 00:11:34

--------------------------------------------------------------------------------
Analyzed: Maynard Ferguson / Ridin' High
--------------------------------------------------------------------------------

DR         Peak         RMS     Duration Track
--------------------------------------------------------------------------------
DR13      -0.76 dB   -17.36 dB      5:53 01-The Rise and Fall of Seven
DR13      -0.79 dB   -16.95 dB      3:40 02-Light Green
DR14      -0.90 dB   -18.26 dB      5:25 03-Kundalini Woman
DR14       0.00 dB   -17.16 dB      3:51 04-Sunny
DR15      -0.73 dB   -19.00 dB      4:27 05-Meet a Cheetah
DR13      -0.39 dB   -17.45 dB      4:37 06-Molecules
DR14       0.00 dB   -18.17 dB      2:49 07-Wack-Wack
DR13      -0.13 dB   -17.19 dB      2:32 08-Stan Speaks
DR13      -0.78 dB   -18.64 dB      3:02 09-Alfie
--------------------------------------------------------------------------------

Number of tracks:  9
Official DR value: DR13

Samplerate:        192000 Hz
Channels:          2
Bits per sample:   24
Bitrate:           5757 kbps
Codec:             FLAC
================================================================================
No seeders - write personal message to M0p94ok. Any questions - support@pro-jazz.com.
Нет сидеров - пишите в личку M0p94ok. Есть вопросы - support@pro-jazz.com
13:33
61
Нет комментариев. Ваш будет первым!