Вы используете незарегистрированную версию компонента "Вкладки"!

Поиск

1956 Chris Connor - Chris (2019) {RevOla} [24-44.1]

1956 Chris Connor - Chris (2019) {RevOla} [24-44.1]
Стили:
Дата переиздания диска:
13 июня 2019
Издатель (лейбл):
Битрейт аудио:
lossless
Доп. инфо:

Формат записи/Источник записи: [TR24][OF]
Издание: Remastered
Год издания/переиздания диска: 1956/2019
Продолжительность: 00:33:48
Наличие сканов в содержимом раздачи: Нет

Контейнер: FLAC (*.flac)
Тип рипа: tracks
Разрядность: 24/44,1
Количество каналов: 2.0

Источник (релизер): Qobuz

Лог проверки качества
foobar2000 1.4.3 / Dynamic Range Meter 1.1.1
log date: 2021-05-03 19:18:50

--------------------------------------------------------------------------------
Analyzed: Chris Connor / Chris
--------------------------------------------------------------------------------

DR         Peak         RMS     Duration Track
--------------------------------------------------------------------------------
DR12      -3.40 dB   -17.98 dB      3:01 01-All About Ronnie
DR12      -3.11 dB   -16.55 dB      2:47 02-Miser's Serenade
DR11      -2.85 dB   -16.87 dB      2:19 03-Everything I Love
DR11      -3.90 dB   -18.33 dB      2:58 04-Indian Summer
DR13      -3.08 dB   -17.80 dB      2:22 05-I Hear Music
DR12      -3.28 dB   -17.75 dB      2:47 06-Come Back To Sorrento
DR12      -2.94 dB   -17.88 dB      2:57 07-Out Of This World
DR12      -3.50 dB   -19.90 dB      2:56 08-Lush Life
DR13      -2.70 dB   -17.73 dB      2:32 09-From This Moment On
DR14      -3.37 dB   -19.96 dB      3:26 10-A Good Man Is A Seldom Thing
DR13      -4.69 dB   -20.22 dB      2:36 11-Don't Wait Up For Me
DR14      -3.15 dB   -19.54 dB      3:11 12-In Other Words
--------------------------------------------------------------------------------

Number of tracks:  12
Official DR value: DR12

Samplerate:        44100 Hz
Channels:          2
Bits per sample:   24
Bitrate:           685 kbps
Codec:             FLAC
================================================================================
Any questions - support@pro-jazz.com. Есть вопросы - support@pro-jazz.com
19:17
59
Нет комментариев. Ваш будет первым!