Вы используете незарегистрированную версию компонента "Вкладки"!

Поиск

2011 Yellowjackets - Timeline {Mack Avenue} [24-96]

2011 Yellowjackets - Timeline {Mack Avenue} [24-96]
Место записи:
Firehouse Recording Studios
Издатель (лейбл):
Битрейт аудио:
lossless
Доп. инфо:

Формат записи/Источник записи: [TR24][OF]
Год издания/переиздания диска: 2011
Продолжительность: 01:02:07
Наличие сканов в содержимом раздачи: Нет
Контейнер: FLAC (*.flac)
Тип рипа: tracks
Разрядность: 24/96
Количество каналов: 2.0

Источник (релизер): HDTracks

Лог проверки качества
foobar2000 1.4.3 / Dynamic Range Meter 1.1.1
log date: 2021-05-02 13:31:25

--------------------------------------------------------------------------------
Analyzed: Yellowjackets / Timeline
--------------------------------------------------------------------------------

DR         Peak         RMS     Duration Track
--------------------------------------------------------------------------------
DR15      -0.70 dB   -17.39 dB      5:04 01-Why Is It
DR15      -0.70 dB   -18.42 dB      6:07 02-Tenacity
DR15      -0.70 dB   -19.15 dB      4:54 03-Rosemary
DR15      -0.70 dB   -18.56 dB      5:11 04-Timeline
DR13      -0.70 dB   -16.00 dB      4:37 05-Magnolia
DR15      -1.47 dB   -19.34 dB      7:05 06-A Single Step
DR13      -2.83 dB   -20.33 dB      5:22 07-Indivisible
DR15      -0.70 dB   -18.03 dB      5:32 08-Like Elvin
DR14      -0.70 dB   -19.39 dB      6:23 09-My Soliloquy
DR16      -0.70 dB   -18.49 dB      5:57 10-Numerology
DR16      -1.46 dB   -20.83 dB      6:01 11-I Do
--------------------------------------------------------------------------------

Number of tracks:  11
Official DR value: DR15

Samplerate:        96000 Hz
Channels:          2
Bits per sample:   24
Bitrate:           2676 kbps
Codec:             FLAC
================================================================================
Any questions - support@pro-jazz.com. Есть вопросы - support@pro-jazz.com
19:43
83
Нет комментариев. Ваш будет первым!