Поиск

1957 Sarah Vaughan - At Mister Kelly's (2020) {Verve, Mercury} [24-192]

1957 Sarah Vaughan - At Mister Kelly's (2020) {Verve, Mercury} [24-192]
Стили:
Дата издания диска:
6 августа 1957
Издатель (лейбл):
Битрейт аудио:
lossless
Доп. инфо:

Формат записи/Источник записи: [TR24][OF]
Издание: Remastered
Год издания/переиздания диска: 1957/2020
Продолжительность: 00:35:31
Наличие сканов в содержимом раздачи: Нет

Контейнер: FLAC (*.flac)
Тип рипа: tracks
Разрядность: 24/192
Количество каналов: 2.0

Источник (релизер): HDtracks

Лог проверки качества
foobar2000 1.4.3 / Dynamic Range Meter 1.1.1
log date: 2021-04-24 11:44:36

--------------------------------------------------------------------------------
Analyzed: Sarah Vaughan / At Mister Kelly's
--------------------------------------------------------------------------------

DR         Peak         RMS     Duration Track
--------------------------------------------------------------------------------
DR11      -0.20 dB   -14.35 dB      3:34 01-September In The Rain (Live At Mister Kelly's, Chicago/1957)
DR13      -0.20 dB   -17.42 dB      5:17 02-Willow Weep For Me (Live At Mister Kelly's, Chicago/1957)
DR12      -0.20 dB   -14.90 dB      3:14 03-Just One Of Those Things (Live At Mister Kelly's, Chicago/1957)
DR12      -0.20 dB   -15.51 dB      4:52 04-Be Anything But Darling Be Mine (Live At Mister Kelly's, Chicago/1957)
DR11      -0.20 dB   -14.00 dB      2:45 05-Thou Swell (Live At Mister Kelly's, Chicago/1957)
DR14      -0.20 dB   -16.82 dB      5:06 06-Stairway To The Stars (Live At Mister Kelly's, Chicago/1957)
DR11      -0.20 dB   -14.41 dB      3:38 07-Honeysuckle Rose (Live At Mister Kelly's, Chicago/1957)
DR13      -0.20 dB   -16.68 dB      4:17 08-Just A Gigolo (Live At Mister Kelly's, Chicago/1957)
DR11      -0.20 dB   -14.06 dB      2:53 09-How High The Moon (Live At Mister Kelly's, Chicago/1957)
--------------------------------------------------------------------------------

Number of tracks:  9
Official DR value: DR12

Samplerate:        192000 Hz
Channels:          2
Bits per sample:   24
Bitrate:           3744 kbps
Codec:             FLAC
================================================================================
No seeders - write personal message to M0p94ok. Any questions - support@pro-jazz.com.
Нет сидеров - пишите в личку M0p94ok. Есть вопросы - support@pro-jazz.com
11:07
47
Нет комментариев. Ваш будет первым!