Поиск

2020 Miles Okazaki - Trickster's Dream {Miles Okazaki} [24-192]

2020 Miles Okazaki - Trickster's Dream {Miles Okazaki} [24-192]
Стили:
Дата издания диска:
3 июля 2020
Битрейт аудио:
lossless

01.Rise and Shine 03:57
02.Seven Sisters 03:28
03.Interlude 1: Rising 03:28
04.The Lighthouse 06:18
05.Anthemoessa 03:33
06.Interlude 2: Sustaining 02:31
07.Dog Star 06:17
08.The Castaway 02:31
09.Interlude 3: Dreaming 01:59
10.Caduceus 05:31

Состав:
  • Miles Okazaki, guitar and compositions
  • Matt Mitchell, piano
  • Anthony Tidd, bass
  • Sean Rickman, drums
Лог проверки качества
foobar2000 1.6.2 / Dynamic Range Meter 1.1.1
log date: 2021-05-07 11:03:20

--------------------------------------------------------------------------------
Analyzed: Miles Okazaki / Trickster's Dream
--------------------------------------------------------------------------------

DR         Peak         RMS     Duration Track
--------------------------------------------------------------------------------
DR10       0.00 dB   -11.47 dB      3:57 01-Rise and Shine
DR10       0.00 dB   -11.49 dB      3:28 02-Seven Sisters
DR10      -4.55 dB   -17.50 dB      3:29 03-Interlude 1: Rising
DR10       0.00 dB   -11.31 dB      6:19 04-The Lighthouse
DR11      -0.05 dB   -12.39 dB      3:34 05-Anthemoessa
DR10      -2.81 dB   -16.63 dB      2:32 06-Interlude 2: Sustaining
DR11       0.00 dB   -12.91 dB      6:17 07-Dog Star
DR12      -0.02 dB   -13.44 dB      2:31 08-The Castaway
DR10      -2.38 dB   -15.11 dB      2:00 09-Interlude 3: Dreaming
DR11       0.00 dB   -11.99 dB      5:31 10-Caduceus
--------------------------------------------------------------------------------

Number of tracks:  10
Official DR value: DR10

Samplerate:        192000 Hz
Channels:          2
Bits per sample:   24
Bitrate:           4504 kbps
Codec:             FLAC
================================================================================
Скачивание доступно после регистрации!!
Приватный:
Нет (DHT включён)
Размер:
1.15 Гб (1,232,736,143 байт) » файлов: 12
Участники:
0 раздают, 0 качают (0 участников всего)
Внешние участники:
1 раздают, 0 качают (1 участников всего) [ Обновить ]
Скорость:
0/c 336.78 Кб/c
13:22
502
Нет комментариев. Ваш будет первым!