Поиск

2021 Carol Duboc & Jeff Lorber - Restless {Gold Note Music} [24-44.1]

2021 Carol Duboc & Jeff Lorber - Restless {Gold Note Music} [24-44.1]
Стили:
Носитель:
WEB
Формат:
PCM
Тип рипа:
tracks
Контейнер:
FLAC (*.flac)
Количество каналов:
2.0
Разрядность/ЧД:
24/44,1
Битрейт аудио:
lossless
Время звучания:
00:38:24
Наличие сканов:
только обложка
Страна-производитель диска (релиза):
USA
Релизёр (источник):
latimer
Лог проверки качества
foobar2000 1.4.6 / Dynamic Range Meter 1.1.1
log date: 2021-04-09 05:14:14

--------------------------------------------------------------------------------
Analyzed: Carol Duboc / Restless (1)
          Hubert Laws / Restless (2)
          Jeff Lorber / Restless (3-9)
          Paul Jackson Jr. / Restless (10)
--------------------------------------------------------------------------------

DR         Peak         RMS     Duration Track
--------------------------------------------------------------------------------
DR10      -0.50 dB   -11.48 dB      3:57 01-Restless
DR10      -0.50 dB   -12.09 dB      3:58 03-Swept Away
DR10      -0.50 dB   -11.94 dB      3:57 02-Universe
DR9       -0.50 dB   -11.05 dB      4:05 04-Aftershock
DR8       -0.50 dB   -10.36 dB      3:32 05-Stay Awake
DR9       -0.50 dB   -11.02 dB      3:34 06-Love Don't Get in the Way
DR9       -0.50 dB   -10.43 dB      4:22 08-Shadow Dance
DR9       -0.50 dB   -11.25 dB      3:26 09-Philosophy
DR9       -0.50 dB   -10.90 dB      3:53 10-Metanoia
DR9       -0.50 dB   -10.87 dB      3:44 07-If You Still Have Eyes
--------------------------------------------------------------------------------

Number of tracks:  10
Official DR value: DR9

Samplerate:        44100 Hz
Channels:          2
Bits per sample:   24
Bitrate:           1662 kbps
Codec:             FLAC
================================================================================
No seeders - write personal message to M0p94ok. Any questions - support@pro-jazz.com.
Нет сидеров - пишите в личку M0p94ok. Есть вопросы - support@pro-jazz.com
23:43
63
Нет комментариев. Ваш будет первым!