Поиск

2021 Joe Lovano & Dave Douglas Sound Prints - Other Worlds {Greenleaf Music} [24-96]

2021 Joe Lovano & Dave Douglas Sound Prints - Other Worlds {Greenleaf Music} [24-96]
Стили:
Дата издания диска:
7 мая 2021
Издатель (лейбл):
Битрейт аудио:
lossless
Доп. инфо:

Формат записи/Источник записи: [TR24][OF]
Наличие водяных знаков: Нет
Год издания: 2021
Продолжительность: 01:09:53
Наличие сканов в содержимом раздачи: Только обложка альбома
Контейнер: FLAC (*.flac)
Тип рипа: tracks
Разрядность: 24/96
Формат: PCM
Количество каналов: 2.0
Источник (релизер): qobuz.com

Лог проверки качества
foobar2000 1.4.8 / Dynamic Range Meter 1.1.1
log date: 2021-05-07 17:41:17

--------------------------------------------------------------------------------
Analyzed: Joe Lovano & Dave Douglas Sound Prints  / Other Worlds
--------------------------------------------------------------------------------

DR         Peak         RMS     Duration Track
--------------------------------------------------------------------------------
DR13      -0.21 dB   -15.79 dB     10:00 01-Space Exploration
DR13      -0.21 dB   -16.78 dB      1:05 02-Shooting Stars
DR11      -0.21 dB   -13.58 dB      7:34 03-Life on Earth
DR11      -0.22 dB   -14.58 dB      5:59 04-Manitou
DR11      -0.21 dB   -15.55 dB      7:45 05-Antiquity to Outer Space
DR10      -0.21 dB   -12.41 dB      8:32 06-The Flight
DR12      -0.22 dB   -15.09 dB      5:42 07-The Transcendentalists
DR13      -0.22 dB   -16.23 dB      7:32 08-Sky Miles
DR11      -0.21 dB   -12.97 dB      8:23 09-Pythagoras
DR10      -0.21 dB   -12.98 dB      7:25 10-Midnight March
--------------------------------------------------------------------------------

Number of tracks:  10
Official DR value: DR12
Samplerate:        96000 Hz
Channels:          2
Bits per sample:   24
Bitrate:           2830 kbps
Codec:             FLAC
================================================================================
No seeders - write personal message to M0p94ok. Any questions - support@pro-jazz.com.
Нет сидеров - пишите в личку M0p94ok. Есть вопросы - support@pro-jazz.com
14:32
49
Нет комментариев. Ваш будет первым!