Поиск

2020 Nat Birchall - Mysticism of Sound {Ancient Archive of Sound} [24-44.1]

2020 Nat Birchall - Mysticism of Sound {Ancient Archive of Sound} [24-44.1]
Место записи:
Ancient Archive Studio
Дата издания диска:
26 июня 2020
Битрейт аудио:
lossless
Доп. инфо:

Формат записи/Источник записи: [TR24][OF]
Наличие водяных знаков: Нет
Год издания/переиздания диска: 2020
Издатель (лейбл): Ancient Archive of Sound
Продолжительность: 00:41:38
Наличие сканов в содержимом раздачи: Только обложка альбома

Контейнер: FLAC (*.flac)
Тип рипа: tracks
Разрядность: 24/44,1
Формат: PCM
Количество каналов: 2.0

Источник (релизер): orpheus <-- bandcamp

Лог проверки качества
foobar2000 1.6.5 / Dynamic Range Meter 1.1.1
log date: 2021-04-21 17:54:18

--------------------------------------------------------------------------------
Analyzed: Nat Birchall / Mysticism of Sound
--------------------------------------------------------------------------------

DR         Peak         RMS     Duration Track
--------------------------------------------------------------------------------
DR11      -1.33 dB   -14.29 dB      0:47 01-Intro-Pyramidion
DR10      -0.56 dB   -13.36 dB      5:03 02-Cosmic Visitant
DR12      -0.71 dB   -14.50 dB      4:40 03-Mysticism of Sound
DR10      -0.90 dB   -13.02 dB      6:12 04-Celestial Spheres
DR10      -0.34 dB   -12.75 dB      3:27 05-Space-Time Vortex
DR10      -0.07 dB   -12.89 dB      5:47 06-Dance of the Sun God
DR9       -0.23 dB   -11.66 dB      4:25 07-Omniscient Beings
DR10      -0.45 dB   -12.39 dB      5:18 08-Inner Pathway
DR10      -0.71 dB   -13.13 dB      5:59 09-Outer Realm
--------------------------------------------------------------------------------

Number of tracks:  9
Official DR value: DR10

Samplerate:        44100 Hz
Channels:          2
Bits per sample:   24
Bitrate:           1272 kbps
Codec:             FLAC
================================================================================
No seeders - write personal message to M0p94ok. Any questions - support@pro-jazz.com.
Нет сидеров - пишите в личку M0p94ok. Есть вопросы - support@pro-jazz.com
19:43
16
Нет комментариев. Ваш будет первым!