Поиск

1968 Eddie Harris - Plug Me In (1999) {Rhino Atlantic} [24-192]

1968 Eddie Harris - Plug Me In (1999) {Rhino Atlantic} [24-192]
Стили:
Дата переиздания диска:
10 декабря 1999
Издатель (лейбл):
Битрейт аудио:
lossless
Доп. инфо:

Формат записи/Источник записи: [TR24][OF]
Издание: Remastered
Год издания/переиздания диска: 1968/1999
Жанр: Jazz Funk
Издатель (лейбл): Rhino Atlantic
Продолжительность: 00:27:05
Наличие сканов в содержимом раздачи: Нет

Контейнер: FLAC (*.flac)
Тип рипа: tracks
Разрядность: 24/192
Количество каналов: 2.0

Источник (релизер): HDTracks

Лог проверки качества
foobar2000 1.4.3 / Dynamic Range Meter 1.1.1
log date: 2021-04-18 19:05:40

--------------------------------------------------------------------------------
Analyzed: Eddie Harris / Plug Me In
--------------------------------------------------------------------------------

DR         Peak         RMS     Duration Track
--------------------------------------------------------------------------------
DR13       0.00 dB   -15.03 dB      7:02 01-Live Right Now
DR12      -0.60 dB   -13.97 dB      3:14 02-It's Crazy
DR12      -0.31 dB   -14.97 dB      3:20 03-Ballad (For My Love)
DR12       0.00 dB   -14.89 dB      4:28 04-Lovely Is Today
DR11      -1.02 dB   -14.69 dB      4:11 05-Theme in Search of a T.V. Commercial
DR12      -0.34 dB   -15.84 dB      4:51 06-Winter Meeting
--------------------------------------------------------------------------------

Number of tracks:  6
Official DR value: DR12

Samplerate:        192000 Hz
Channels:          2
Bits per sample:   24
Bitrate:           5787 kbps
Codec:             FLAC
================================================================================
No seeders - write personal message to M0p94ok. Any questions - support@pro-jazz.com.
Нет сидеров - пишите в личку M0p94ok. Есть вопросы - support@pro-jazz.com
19:06
10
Нет комментариев. Ваш будет первым!