Вы используете незарегистрированную версию компонента "Вкладки"!

Поиск

1981 Joao Gilberto, Caetano Veloso, Gilberto Gil, Maria Bethania - Brasil (2011) {Warner} [24-192]

1981 Joao Gilberto, Caetano Veloso, Gilberto Gil, Maria Bethania - Brasil (2011) {Warner} [24-192]
Дата издания диска:
1 января 1981
Издатель (лейбл):
Битрейт аудио:
lossless
Доп. инфо:

Формат записи/Источник записи: [TR24][OF]
Издание: Remastered
Год издания/переиздания диска: 1981/2011
Продолжительность: 00:28:15
Наличие сканов в содержимом раздачи: Нет

Контейнер: FLAC (*.flac)
Тип рипа: tracks
Разрядность: 24/192
Количество каналов: 2.0

Источник (релизер): HDTracks

Лог проверки качества
foobar2000 1.4.3 / Dynamic Range Meter 1.1.1
log date: 2021-04-19 20:58:37

--------------------------------------------------------------------------------
Analyzed: João Gilberto / Brasil
--------------------------------------------------------------------------------

DR         Peak         RMS     Duration Track
--------------------------------------------------------------------------------
DR13      -1.22 dB   -18.64 dB      6:36 01-Aquarela Do Brasil
DR14      -4.90 dB   -24.89 dB      5:19 02-Disse Alguem (All of Me)
DR14      -4.66 dB   -21.80 dB      5:14 03-Bahia Com H
DR13      -5.06 dB   -20.38 dB      4:51 04-No Tabuleiro da Baiana
DR14      -6.26 dB   -22.90 dB      4:55 05-Milagre
DR11      -8.10 dB   -23.72 dB      1:23 06-Cordeiro De Nana
--------------------------------------------------------------------------------

Number of tracks:  6
Official DR value: DR13

Samplerate:        192000 Hz
Channels:          2
Bits per sample:   24
Bitrate:           4750 kbps
Codec:             FLAC
================================================================================
Any questions - support@pro-jazz.com. Есть вопросы - support@pro-jazz.com
18:08
88
Нет комментариев. Ваш будет первым!