Поиск

2018 Yves Rousseau - Murmures {Abalone} [24-88.2]

2018 Yves Rousseau - Murmures {Abalone} [24-88.2]
Стили:
Дата издания диска:
30 марта 2018
Битрейт аудио:
lossless
Доп. инфо:

Формат записи/Источник записи: [TR24][OF]
Наличие водяных знаков: Нет
Год издания/переиздания диска: 2018
Издатель (лейбл): Abalone Productions
Продолжительность: 00:50:42
Наличие сканов в содержимом раздачи: Только обложка альбома

Контейнер: FLAC (*.flac)
Тип рипа: tracks
Разрядность: 24/88,2
Формат: PCM
Количество каналов: 2.0

Источник (релизер): redacted <-- qobuz

Лог проверки качества
foobar2000 1.6.5 / Dynamic Range Meter 1.1.1
log date: 2021-04-19 23:07:04

--------------------------------------------------------------------------------
Analyzed: Yves Rousseau / Murmures
--------------------------------------------------------------------------------

DR         Peak         RMS     Duration Track
--------------------------------------------------------------------------------
DR8       -0.30 dB   -10.80 dB      6:06 01-Un jour, les pierres
DR8       -0.20 dB   -10.33 dB      3:51 02-Ce sera par un jour d'automne
DR9       -0.30 dB   -14.07 dB      3:32 03-Nous n'y pouvons plus rien
DR11      -1.84 dB   -18.35 dB      2:35 04-Caresses
DR8       -0.30 dB   -11.15 dB      3:04 05-Jusqu'a la fin
DR14      -9.08 dB   -24.96 dB      0:25 06-Murmures
DR11      -1.88 dB   -16.02 dB      2:19 07-Ou riviere et fleuve
DR8       -0.30 dB   -10.94 dB      3:40 08-Un jour si je me perds en toi
DR9       -0.30 dB   -13.17 dB      5:44 09-Enigme
DR10      -0.30 dB   -13.57 dB      5:34 10-Chaque jour de ta vie
DR15      -0.63 dB   -23.86 dB      8:34 11-Avoir tout dit
DR8       -0.30 dB   -11.53 dB      5:18 12-Pierre a encre
--------------------------------------------------------------------------------

Number of tracks:  12
Official DR value: DR10

Samplerate:        88200 Hz
Channels:          2
Bits per sample:   24
Bitrate:           2845 kbps
Codec:             FLAC
================================================================================
No seeders - write personal message to M0p94ok. Any questions - support@pro-jazz.com.
Нет сидеров - пишите в личку M0p94ok. Есть вопросы - support@pro-jazz.com
20:08
13
Нет комментариев. Ваш будет первым!