Поиск

2020 Al Di Meola - Across the Universe {earMUSIC} [24-96]

2020 Al Di Meola - Across the Universe {earMUSIC} [24-96]
Стили:
Битрейт аудио:
lossless
Треклист:

01 - Here Comes the Sun 03:26
02 - Golden Slumber's Medley 06:17
03 - Dear Prudence 04:35
04 - Norwegian Wood 06:06
05 - Mother Nature's Son 04:01
06 - Strawberry Fields Forever 05:47
07 - Yesterday 05:09
08 - Your Mother Should Know 04:30
09 - Hey Jude 04:51
10 - I'll Follow the Sun 04:28
11 - Julia 04:42
12 - Till There Was You 04:37
13 - Here, There and Everywhere 02:31
14 - Octopus's Garden 00:46

Доп. инфо:

Формат записи/Источник записи: [TR24][OF]
Год издания/переиздания диска: 2020
Издатель (лейбл): earMUSIC
Продолжительность: 01:01:46
Наличие сканов в содержимом раздачи: Нет

Формат записи/Источник записи: [TR24][OF]
Год издания/переиздания диска: 2020
Жанр: Fusion
Издатель (лейбл): earMUSIC
Продолжительность: 01:01:46
Наличие сканов в содержимом раздачи: Нет

Источник (релизер): Qobuz

Лог проверки качества
foobar2000 1.4.3 / Dynamic Range Meter 1.1.1
log date: 2020-03-12 07:37:50

--------------------------------------------------------------------------------
Analyzed: Al Di Meola / Across the Universe
--------------------------------------------------------------------------------

DR         Peak         RMS     Duration Track
--------------------------------------------------------------------------------
DR5       -0.50 dB    -7.29 dB      3:27 01-Here Comes the Sun
DR6       -0.50 dB    -7.83 dB      6:18 02-Golden Slumbers Medley
DR6       -0.50 dB    -8.37 dB      4:35 03-Dear Prudence
DR6       -0.50 dB    -7.99 dB      6:06 04-Norwegian Wood
DR8       -0.50 dB   -10.07 dB      4:02 05-Mother Nature's Son
DR6       -0.50 dB    -8.74 dB      5:47 06-Strawberry Fields Forever
DR10      -0.50 dB   -12.26 dB      5:10 07-Yesterday
DR6       -0.50 dB    -8.54 dB      4:31 08-Your Mother Should Know
DR7       -0.50 dB    -9.92 dB      4:51 09-Hey Jude
DR7       -0.50 dB   -10.63 dB      4:29 10-I'll Follow the Sun
DR7       -0.50 dB    -9.70 dB      4:43 11-Julia
DR7       -0.50 dB    -8.79 dB      4:38 12-Till There Was You
DR11      -0.50 dB   -14.31 dB      2:31 13-Here, There and Everywhere
DR8       -0.50 dB   -11.10 dB      0:46 14-Octopus's Garden
--------------------------------------------------------------------------------

Number of tracks:  14
Official DR value: DR7

Samplerate:        96000 Hz
Channels:          2
Bits per sample:   24
Bitrate:           2802 kbps
Codec:             FLAC
================================================================================
Приватный:
Нет (DHT включён)
Размер:
1.26 Гб (1,350,721,021 байт) » файлов: 18
Участники:
5 раздают, 0 качают (5 участников всего)
Внешние участники:
34 раздают, 11 качают (45 участников всего) [ Обновить ]
No seeders - write personal message to user M0p94ok. Нет сидеров - пишите личное сообщение пользователю M0p94ok.
16:18
17
Нет комментариев. Ваш будет первым!