Поиск

2020 Elliot Galvin - Live in Paris, at Fondation Louis Vuitton {Edition} [24-96]

2020 Elliot Galvin - Live in Paris, at Fondation Louis Vuitton {Edition} [24-96]
Стили:
Битрейт аудио:
lossless
Треклист:

◈ 01 - As Above (00:09:26)
◈ 02 - Time And Everything (00:07:45)
◈ 03 - Coda (00:02:18)
◈ 04 - For J.S. (00:06:32)
◈ 05 - Broken Windows (00:05:33)
◈ 06 - So Below (00:09:32)

Доп. инфо:

• Формат записи | Источник записи: [TR24][OF]
• Наличие водяных знаков: Нет
• Год издания релиза: 2020
• Лейбл: Edition Records
• Продолжительность: 00:41:08
• Источник: internet
• WEB релиз: ссылка
• Контейнер: FLAC (*.flac)
• Тип рипа: tracks
• Разрядность: 24/96
• Формат: PCM
• Количество каналов: 2.0
• Наличие сканов: front
 

Лог проверки качества
foobar2000 1.4.2 / Замер динамического диапазона (DR) 1.1.1
Дата отчёта:  2020-03-06 09:22:51

--------------------------------------------------------------------------------
Анализ:   Elliot Galvin / Live in Paris, at Fondation Louis Vuitton
--------------------------------------------------------------------------------

DR         Пики         RMS           Продолжительность трека
--------------------------------------------------------------------------------
DR11      -0.70 дБ   -16.18 дБ      9:26 01-As Above
DR12      -1.71 дБ   -18.46 дБ      7:46 02-Time And Everything
DR11      -0.70 дБ   -15.16 дБ      2:19 03-Coda
DR12      -0.83 дБ   -15.48 дБ      6:33 04-For J.S.
DR16      -3.25 дБ   -24.45 дБ      5:33 05-Broken Windows
DR9       -0.70 дБ   -15.09 дБ      9:32 06-So Below
--------------------------------------------------------------------------------

Количество треков: 6
Реальные значения DR: DR12

Частота:   96000 Гц
Каналов:   2
Разрядность:   24
Битрейт:   2368 кбит/с
Кодек:   FLAC
================================================================================
Приватный:
Нет (DHT включён)
Размер:
680.78 Мб (713,850,578 байт) » файлов: 7
Участники:
0 раздают, 0 качают (0 участников всего)
Внешние участники:
11 раздают, 4 качают (15 участников всего) [ Обновить ]
No seeders - write personal message to user M0p94ok. Нет сидеров - пишите личное сообщение пользователю M0p94ok.
18:17
25
Нет комментариев. Ваш будет первым!