Вы используете незарегистрированную версию компонента "Вкладки"!

Поиск

2020 Jumaane Smith - When You're Smiling {Zinn Music LLC} [24-44,1]

2020 Jumaane Smith - When You're Smiling {Zinn Music LLC} [24-44,1]
Стили:
Битрейт аудио:
lossless
Доп. инфо:

• Формат записи | Источник записи: [TR24][OF]
• Наличие водяных знаков: Нет
• Год издания релиза: 2020
• Лейбл: Zinn Music LLC
• Продолжительность: 00:39:33
• Источник: internet
• WEB релиз: ссылка
• Контейнер: FLAC (*.flac)
• Тип рипа: tracks
• Разрядность: 24/44,1
• Формат: PCM
• Количество каналов: 2.0
• Наличие сканов: front

Лог проверки качества
foobar2000 1.4.2 / Замер динамического диапазона (DR) 1.1.1
Дата отчёта:  2020-03-12 09:50:53

--------------------------------------------------------------------------------
Анализ:   Jumaane Smith / When You're Smiling
--------------------------------------------------------------------------------

DR         Пики         RMS           Продолжительность трека
--------------------------------------------------------------------------------
DR8       -1.13 дБ   -13.17 дБ      3:23 02-You're Nobody Till Somebody Loves You (Live at Croke Park Stadium, Dublin, Ireland 7/7/2018)
DR9       -0.54 дБ   -11.77 дБ      3:07 03-Sweet Baby
DR10      -1.08 дБ   -13.66 дБ      5:18 04-I've Got a Right to Sing the Blues
DR10      -1.12 дБ   -13.40 дБ      3:26 05-Stars Fell on Alabama
DR8       -1.05 дБ   -11.86 дБ      5:22 06-Is You Is or Is You Ain't My Baby
DR10      -0.99 дБ   -12.92 дБ      4:00 07-Pennies from Heaven
DR9       -1.21 дБ   -12.84 дБ      3:34 08-I'll Never Smile Again
DR10      -1.08 дБ   -12.79 дБ      5:14 09-I've Got You Under My Skin
DR10      -1.21 дБ   -12.83 дБ      2:47 10-A Kiss to Build a Dream On
--------------------------------------------------------------------------------

Количество треков: 9
Реальные значения DR: DR9

Частота:   44100 Гц
Каналов:   2
Разрядность:   24
Битрейт:   1609 кбит/с
Кодек:   FLAC
================================================================================

--------------------------------------------------------------------------------
Статистика для:  01-When You're Smiling
Количество сэмплов: 17954040
Продолжительность: 3:24
--------------------------------------------------------------------------------

           Левый             Правый

Пики:               -1.21 дБ     ---     -1.21 дБ
Средний RMS:             -12.68 дБ     ---    -11.94 дБ
DR канала:               9.03 дБ     ---      8.92 дБ
--------------------------------------------------------------------------------

Реальные значения DR: DR9

Частота:   88200 Гц
Каналов:   2
Разрядность:   24
Битрейт:   2787 кбит/с
Кодек:   FLAC
================================================================================
Any questions - support@pro-jazz.com. Есть вопросы - support@pro-jazz.com
21:42
238
Нет комментариев. Ваш будет первым!