Поиск

2020 Noemi Nuti - Venus Eye {Ubuntu Music} [24-48]

2020 Noemi Nuti - Venus Eye {Ubuntu Music} [24-48]
Издатель (лейбл):
Битрейт аудио:
lossless
Треклист:

◈ 01 - Sunny Perfect Sunday (00:02:21)
◈ 02 - Beautiful Life (00:05:22)
◈ 03 - For What I See (00:03:34)
◈ 04 - Hush the Sadness (00:05:40)
◈ 05 - Cornflake Girl (00:03:46)
◈ 06 - Italian Lullaby (00:06:02)
◈ 07 - I Will Remember (00:05:31)
◈ 08 - Uberwench (00:04:18)
◈ 09 - Crazy Dance (00:04:12)
◈ 10 - Nevermind (00:04:58)
◈ 11 - She's Always a Woman (00:05:08)

Доп. инфо:

• Формат записи | Источник записи: [TR24][OF]
• Наличие водяных знаков: Нет
• Год издания релиза: 2020
• Лейбл: Ubuntu Music
• Продолжительность: 00:50:57
• Источник: internet
• WEB релиз: ссылка
• Контейнер: FLAC (*.flac)
• Тип рипа: tracks
• Разрядность: 24/48
• Формат: PCM
• Количество каналов: 2.0
• Наличие сканов: front

Лог проверки качества
foobar2000 1.4.2 / Dynamic Range Meter 1.1.1
log date: 2020-03-11 20:41:24

--------------------------------------------------------------------------------
Analyzed: Noemi Nuti / Venus Eye
--------------------------------------------------------------------------------

DR         Peak         RMS     Duration Track
--------------------------------------------------------------------------------
DR8       -0.48 dB    -9.82 dB      2:22 01-Sunny Perfect Sunday
DR7       -0.48 dB    -9.58 dB      5:22 02-Beautiful Life
DR8       -0.48 dB    -9.77 dB      3:34 03-For What I See
DR8       -0.48 dB   -10.51 dB      5:41 04-Hush the Sadness
DR7       -0.48 dB    -8.17 dB      3:47 05-Cornflake Girl
DR8       -0.48 dB   -10.61 dB      6:02 06-Italian Lullaby
DR7       -0.48 dB    -9.21 dB      5:32 07-I Will Remember
DR8       -0.48 dB   -10.46 dB      4:19 08-Uberwench
DR8       -0.48 dB    -9.55 dB      4:12 09-Crazy Dance
DR8       -0.48 dB   -10.29 dB      4:58 10-Nevermind
DR9       -0.48 dB   -11.82 dB      5:08 11-She's Always a Woman
--------------------------------------------------------------------------------

Number of tracks:  11
Official DR value: DR8

Samplerate:        48000 Hz
Channels:          2
Bits per sample:   24
Bitrate:           1404 kbps
Codec:             FLAC
================================================================================
Приватный:
Нет (DHT включён)
Размер:
599.56 Мб (628,683,242 байт) » файлов: 12
Участники:
0 раздают, 0 качают (0 участников всего)
Внешние участники:
9 раздают, 3 качают (12 участников всего) [ Обновить ]
No seeders - write personal message to user M0p94ok. Нет сидеров - пишите личное сообщение пользователю M0p94ok.
07:24
15
Нет комментариев. Ваш будет первым!