Поиск

2020 Pericopes - UP {Losen} [24-96]

2020 Pericopes - UP {Losen} [24-96]
Стили:
Битрейт аудио:
lossless
Треклист:

◈ 01 - Wonderland (00:05:07)
◈ 02 - Ucronia (00:06:52)
◈ 03 - Disco Gagarin (00:06:17)
◈ 04 - The Earth's Shape (00:06:14)
◈ 05 - Danza di Kuwa (00:08:51)
◈ 06 - Martyrlied (00:07:34)
◈ 07 - Gorod Malinov (00:06:11)
◈ 08 - La Rentree (00:08:17)
◈ 09 - Sultans Of Swing (00:05:38)

Доп. инфо:

• Формат записи | Источник записи: [TR24][OF]
• Наличие водяных знаков: Нет
• Год издания релиза: 2020
• Лейбл: Losen Records
• Продолжительность: 01:01:04
• Источник: internet
• WEB релиз: ссылка
• Контейнер: FLAC (*.flac)
• Тип рипа: tracks
• Разрядность: 24/96
• Формат: PCM
• Количество каналов: 2.0
• Наличие сканов: front

Лог проверки качества
foobar2000 1.4.2 / Dynamic Range Meter 1.1.1
log date: 2020-03-11 19:45:24

--------------------------------------------------------------------------------
Analyzed: Pericopes / UP
--------------------------------------------------------------------------------

DR         Peak         RMS     Duration Track
--------------------------------------------------------------------------------
DR9       -0.30 dB   -13.07 dB      5:07 01-Wonderland
DR8       -0.30 dB   -12.05 dB      6:53 02-Ucronia
DR9       -0.30 dB   -12.15 dB      6:17 03-Disco Gagarin
DR8       -0.13 dB   -11.73 dB      6:15 04-The Earth's Shape
DR10      -0.30 dB   -15.01 dB      8:51 05-Danza di Kuwa
DR8       -0.30 dB   -10.30 dB      7:34 06-Martyrlied
DR10      -0.30 dB   -15.45 dB      6:12 07-Gorod Malinov
DR9       -0.30 dB   -13.04 dB      8:18 08-La Rentree
DR10      -0.30 dB   -13.89 dB      5:38 09-Sultans Of Swing
--------------------------------------------------------------------------------

Number of tracks:  9
Official DR value: DR9

Samplerate:        96000 Hz
Channels:          2
Bits per sample:   24
Bitrate:           2799 kbps
Codec:             FLAC
================================================================================
Приватный:
Нет (DHT включён)
Размер:
1.24 Гб (1,328,218,513 байт) » файлов: 10
Участники:
0 раздают, 0 качают (0 участников всего)
Внешние участники:
8 раздают, 2 качают (10 участников всего) [ Обновить ]
No seeders - write personal message to user M0p94ok. Нет сидеров - пишите личное сообщение пользователю M0p94ok.
06:46
21
Нет комментариев. Ваш будет первым!