Поиск

2020 VA - Audiophile Analog Collection Vol. 2 {2xHD} [24-192]

2020 VA - Audiophile Analog Collection Vol. 2 {2xHD} [24-192]
Битрейт аудио:
lossless
Треклист:

◈ 01 - Marc Vallee Trio - Lights of Barcelona (00:05:49)
◈ 02 - Trio de Curda - Libertango (00:03:39)
◈ 03 - Monique Page; Regis Rousseau - Seven Last Words of Christ Introduction (00:05:49)
◈ 04 - Sonny Boy Williamson - The Sky Is Crying (00:03:20)
◈ 05 - Doreen Smith - Route 66 (00:04:38)
◈ 06 - Anonymous - Le Violette (00:01:42)
◈ 07 - F. Alarie; E. Chappell - echanges synaptiques interdits (00:02:23)
◈ 08 - Groupe Musicus - Musicus Percussion #3 (00:03:25)
◈ 09 - Audiophile Analog Collection - Bell (00:01:26)
◈ 10 - Raymond Daveluy - J.S. Bach Toccata and Fugue in D Minor, BWV 565 (00:10:09)
◈ 11 - Orchestre Mondial; Pierre Hetu - Pictures at an Exhibition, Excerpts (00:06:31)

Доп. инфо:

• Формат записи | Источник записи: [TR24][OF]
• Наличие водяных знаков: Нет
• Год издания релиза: 2020
• Жанр: Jazz
• Лейбл: 2xHD
• Продолжительность: 00:48:56
• Источник: internet
• WEB релиз: ссылка
• Контейнер: FLAC (*.flac)
• Тип рипа: tracks
• Разрядность: 24/192
• Формат: WAV (flac.ape.wv)
• Количество каналов: 2.0
• Наличие сканов: booklet

Лог проверки качества
foobar2000 1.4.2 / Dynamic Range Meter 1.1.1
log date: 2020-03-11 18:54:08

--------------------------------------------------------------------------------
Analyzed: Anonymous / Audiophile Analog Collection Vol. 2 (1)
          Audiophile Analog Collection / Audiophile Analog Collection Vol. 2 (2)
          Doreen Smith / Audiophile Analog Collection Vol. 2 (3)
          F. Alarie; E. Chappell / Audiophile Analog Collection Vol. 2 (4)
          Groupe Musicus / Audiophile Analog Collection Vol. 2 (5)
          Marc Vallee Trio / Audiophile Analog Collection Vol. 2 (6)
          Monique Page; Regis Rousseau / Audiophile Analog Collection Vol. 2 (7)
          Orchestre Mondial; Pierre HГ©tu / Audiophile Analog Collection Vol. 2 (8)
          Raymond Daveluy / Audiophile Analog Collection Vol. 2 (9)
          Sonny Boy Williamson / Audiophile Analog Collection Vol. 2 (10)
          Trio de Curda / Audiophile Analog Collection Vol. 2 (11)
--------------------------------------------------------------------------------

DR         Peak         RMS     Duration Track
--------------------------------------------------------------------------------
DR15      -1.22 dB   -21.07 dB      1:42 06-Le Violette
DR13      -1.16 dB   -17.41 dB      1:26 09-Bell
DR13       0.00 dB   -16.46 dB      4:38 05-Route 66
DR14      -0.50 dB   -19.97 dB      2:24 07-Г‰changes synaptiques interdits
DR18       0.00 dB   -21.26 dB      3:25 08-Musicus Percussion #3
DR12       0.00 dB   -15.43 dB      5:49 01-Lights of Barcelona
DR11      -3.77 dB   -20.46 dB      5:49 03-Seven Last Words of Christ: Introduction
DR13       0.00 dB   -16.62 dB      6:32 11-Pictures at an Exhibition, Excerpts
DR12      -2.79 dB   -19.54 dB     10:10 10-J.S. Bach Toccata and Fugue in D Minor, BWV 565
DR15      -1.35 dB   -24.86 dB      3:20 04-The Sky Is Crying
DR14      -3.12 dB   -21.32 dB      3:40 02-Libertango
--------------------------------------------------------------------------------

Number of tracks:  11
Official DR value: DR14

Samplerate:        192000 Hz
Channels:          2
Bits per sample:   24
Bitrate:           5050 kbps
Codec:             FLAC
================================================================================
Приватный:
Нет (DHT включён)
Размер:
1.73 Гб (1,862,682,238 байт) » файлов: 13
Участники:
0 раздают, 2 качают (2 участников всего)
Внешние участники:
34 раздают, 11 качают (45 участников всего) [ Обновить ]
Скорость:
175.25 Кб/c 0/c
No seeders - write personal message to user M0p94ok. Нет сидеров - пишите личное сообщение пользователю M0p94ok.
22:50
27
Нет комментариев. Ваш будет первым!