Поиск

1976 Hank Crawford - Hank Crawford's Back (2017) {King} [24-192]

1976 Hank Crawford - Hank Crawford's Back (2017) {King} [24-192]
Стили:
Издатель (лейбл):
Битрейт аудио:
lossless
Треклист:

01 - Funky Pigeon 06:10
02 - Can't Stop Loving You 03:08
03 - You'll Never Find Another Love Like Mine 06:49
04 - Canadian Sunset 06:12
05 - Midnight Over Memphis 11:30

Доп. инфо:

Формат записи/Источник записи: [TR24][OF]
Издание: Remastered
Год издания/переиздания диска: 1976/2017
Издатель (лейбл): King Record Co
Продолжительность: 00:33:49
Наличие сканов в содержимом раздачи: Нет

Контейнер: FLAC (*.flac)
Тип рипа: tracks
Разрядность: 24/192
Количество каналов: 2.0

Источник (релизер): King Jazz & Classics

Лог проверки качества
foobar2000 1.4.3 / Dynamic Range Meter 1.1.1
log date: 2020-03-11 06:56:43

--------------------------------------------------------------------------------
Analyzed: Hank Crawford / Hank Crawford's Back
--------------------------------------------------------------------------------

DR         Peak         RMS     Duration Track
--------------------------------------------------------------------------------
DR9       -0.10 dB   -11.29 dB      6:10 01-Funky Pidgeon
DR9       -0.10 dB   -11.32 dB      3:09 02-I Can't Stop Loving You
DR7       -0.10 dB    -9.54 dB      6:49 03-You'll Never Find Another Love Like Mine
DR8       -0.10 dB    -9.29 dB      6:12 04-Canadian Sunset
DR9       -0.10 dB   -11.34 dB     11:31 05-Midnight Over Memphis
--------------------------------------------------------------------------------

Number of tracks:  5
Official DR value: DR8

Samplerate:        192000 Hz
Channels:          2
Bits per sample:   24
Bitrate:           5543 kbps
Codec:             FLAC
================================================================================
Приватный:
Нет (DHT включён)
Размер:
1.32 Гб (1,417,364,224 байт) » файлов: 9
Участники:
0 раздают, 2 качают (2 участников всего)
Внешние участники:
5 раздают, 2 качают (7 участников всего) [ Обновить ]
Скорость:
4.75 Мб/c 0/c
No seeders - write personal message to user M0p94ok. Нет сидеров - пишите личное сообщение пользователю M0p94ok.
22:14
27
Нет комментариев. Ваш будет первым!