Поиск

2020 Ernesto Cervini – Tetrahedron {Anzic} [24-96]

2020 Ernesto Cervini – Tetrahedron {Anzic} [24-96]
Битрейт аудио:
lossless
Треклист:

01. Softly, As in a Morning Sunrise
02. Forward Motion
03. Angelicus
04. Boo Radley
05. Stro
06. Summit Song
07. Wandering
08. The Sneaky Two

Доп. инфо:

Формат записи/Источник записи: [TR24][OF]
Наличие водяных знаков: Нет
Год издания: 2020
Издатель (лейбл): Anzic Records
Продолжительность: 00:47:40
Наличие сканов в содержимом раздачи: Только обложка
Источник: highresaudio
Контейнер: FLAC (*.flac)
Тип рипа: tracks
Разрядность: 24/96
Формат: PCM
Количество каналов: 2.0

Лог проверки качества
foobar2000 1.3.7 / Dynamic Range Meter 1.1.1
log date: 2020-03-05 23:09:31

––––––––––––––––––––––––––––––––––––––––
Analyzed: Ernesto Cervini / Tetrahedron
––––––––––––––––––––––––––––––––––––––––

DR Peak RMS Duration Track
––––––––––––––––––––––––––––––––––––––––
DR9 -1.20 dB -12.67 dB 4:45 01-Softly, As in a Morning Sunrise
DR10 -1.20 dB -13.45 dB 6:59 02-Forward Motion
DR10 -1.64 dB -15.53 dB 5:52 03-Angelicus
DR10 -1.20 dB -13.16 dB 5:20 04-Boo Radley
DR10 -1.20 dB -14.61 dB 7:09 05-Stro
DR8 -1.20 dB -10.88 dB 5:03 06-Summit Song
DR11 -1.20 dB -16.10 dB 4:24 07-Wandering
DR9 -1.20 dB -12.15 dB 8:12 08-The Sneaky Two
––––––––––––––––––––––––––––––––––––––––

Number of tracks: 8
Official DR value: DR10

Samplerate: 96000 Hz
Channels: 2
Bits per sample: 24
Bitrate: 2935 kbps
Codec: FLAC
============================================================================
Приватный:
Да (DHT отключён)
Размер:
989.88 Мб (1,037,961,285 байт) » файлов: 9
Участники:
0 раздают, 0 качают (0 участников всего)
Внешние участники:
11 раздают, 4 качают (15 участников всего) [ Обновить ]
No seeders - write personal message to user M0p94ok. Нет сидеров - пишите личное сообщение пользователю M0p94ok.
21:39
15
Нет комментариев. Ваш будет первым!