Поиск

2019 Richard Galliano - Tribute To Michel Legrand {Jade} [24-96]

2019 Richard Galliano - Tribute To Michel Legrand {Jade} [24-96]

Носитель:
WEB
Формат:
PCM
Тип рипа:
tracks
Контейнер:
FLAC (*.flac)
Количество каналов:
2.0
Разрядность/ЧД:
24/96
Время звучания:
00:56:02
Наличие сканов:
только обложка
Наличие водяных знаков:
нет
Релизёр (источник):
M0p94ok

Треклист:

01. I Will Wait for You  03:30
02. The Windmills of your Mind  04:08
03. The Summer Knows  03:35
04. Once Upon a Summertime  02:37
05. La Chanson  02:31
06. I Will Say Goodbye  04:02
07. The Go-Between  04:27
08. Aurore  06:35
09. Les Enfants qui pleurent  03:10
10. Barbara  03:45
11. Apollo Valse  03:04
12. Watch What Happens  03:30
13. What Are you Doing the Rest of Your Life  05:14
14. Chanson de Maxence (You Must Believe in Spring)  05:48

Лог проверки качества
foobar2000 1.4.3 / Dynamic Range Meter 1.1.1
log date: 2020-03-03 13:36:17

--------------------------------------------------------------------------------
Analyzed: Richard Galliano / Tribute To Michel Legrand
--------------------------------------------------------------------------------

DR         Peak         RMS     Duration Track
--------------------------------------------------------------------------------
DR12      -1.05 dB   -17.11 dB      3:31 01-I Will Wait for You
DR12      -1.73 dB   -21.05 dB      4:08 02-The Windmills of your Mind
DR12      -0.11 dB   -18.17 dB      3:36 03-The Summer Knows
DR11      -1.81 dB   -17.31 dB      2:38 04-Once Upon a Summertime
DR11      -0.11 dB   -14.81 dB      2:31 05-La Chanson
DR15      -0.11 dB   -19.50 dB      4:02 06-I Will Say Goodbye
DR12      -0.11 dB   -15.88 dB      4:28 07-The Messenger
DR12      -0.11 dB   -16.88 dB      6:35 08-Aurore
DR13      -0.27 dB   -21.50 dB      3:10 09-Les Enfants qui pleurent
DR12      -0.11 dB   -17.17 dB      3:46 10-Barbara
DR13      -0.11 dB   -16.24 dB      3:04 11-Apollo Valse
DR12      -0.11 dB   -15.28 dB      3:31 12-Watch What Happens
DR12      -0.96 dB   -18.13 dB      5:14 13-What Are you Doing the Rest of Your Life
DR13      -4.33 dB   -23.13 dB      5:48 14-Chanson de Maxence (You Must Believe in Spring)
--------------------------------------------------------------------------------

Number of tracks:  14
Official DR value: DR12

Samplerate:        96000 Hz
Channels:          2
Bits per sample:   24
Bitrate:           2354 kbps
Codec:             FLAC
================================================================================
Приватный:
Нет (DHT включён)
Размер:
1005.74 Мб (1,054,592,198 байт) » файлов: 16
Участники:
9 раздают, 2 качают (11 участников всего)
Внешние участники:
--- [ Обновить ]
Скорость:
650.17 Кб/c 0/c
Есть вопросы - пишите личное сообщение пользователю M0p94ok.
14:04
23
Нет комментариев. Ваш будет первым!