Поиск

2020 Macha Gharibian - Joy Ascension {Rue Bleue} [24-48]

2020 Macha Gharibian - Joy Ascension {Rue Bleue} [24-48]
Треклист:

01. Joy Ascension
02. Georgian Mood
03. Fight
04. The Woman I Am Longing To Be
05. Sari Siroun Yar
06. 50 Ways To Leave Your Lover
07. Crying Bohemia
08. Freedom Nine Dance

Доп. инфо:

Формат записи/Источник записи: [TR24][OF]
Наличие водяных знаков: Нет
Год издания/переиздания диска: 2020
Издатель (лейбл): Rue bleue
Продолжительность: 00:42:16
Наличие сканов в содержимом раздачи: Буклет PDF
Источник (релизер): qobuz

Контейнер: FLAC (*.flac)
Тип рипа: tracks
Разрядность: 24/48
Формат: PCM
Количество каналов: 2.0

Доп. информация: https://www.machagharibian.com/

Лог проверки качества
foobar2000 1.1.15 / Dynamic Range Meter 1.1.1
log date: 2020-01-24 12:37:14

--------------------------------------------------------------------------------
Analyzed: Macha Gharibian / Joy Ascension
--------------------------------------------------------------------------------

DR         Peak         RMS     Duration Track
--------------------------------------------------------------------------------
DR9       -0.97 dB   -11.87 dB      4:37 01-Joy Ascension
DR9       -0.95 dB   -12.22 dB      5:31 02-Georgian Mood
DR8       -0.92 dB   -10.38 dB      3:40 03-Fight
DR10      -0.98 dB   -14.28 dB      5:44 04-The Woman I Am Longing To Be
DR9       -0.99 dB   -12.95 dB      7:42 05-Sari Siroun Yar
DR9       -0.96 dB   -12.94 dB      4:46 06-50 Ways To Leave Your Lover
DR10      -0.99 dB   -16.03 dB      3:26 07-Crying Bohemia
DR10      -0.97 dB   -14.06 dB      6:49 08-Freedom Nine Dance
--------------------------------------------------------------------------------

Number of tracks:  8
Official DR value: DR9

Samplerate:        48000 Hz
Channels:          2
Bits per sample:   24
Bitrate:           1573 kbps
Codec:             FLAC
================================================================================
Приватный:
Нет (DHT включён)
Размер:
509.37 Мб (534,109,071 байт) » файлов: 13
Участники:
1 раздают, 13 качают (14 участников всего)
Внешние участники:
10 раздают, 3 качают (13 участников всего) [ Обновить ]
Скорость:
327.84 Кб/c 18.67 Кб/c
Есть вопросы - пишите личное сообщение пользователю M0p94ok.
12:43
22
Нет комментариев. Ваш будет первым!