Поиск

1962 Art Blakey - Three Blind Mice, Vol. 2 (2015) {Crazy Warthog Media} [24-44,1]

1962 Art Blakey - Three Blind Mice, Vol. 2 (2015) {Crazy Warthog Media} [24-44,1]
Стили:
Треклист:

01 - It’s Only a Paper Moon 13:27
02 - Mosaic 12:30
03 - Ping Pong 12:24
04 - The Promised Land 13:13
05 - Arabia 11:25

Доп. инфо:

Формат записи/Источник записи: [TR24][OF]
Издание: Reissue
Год издания/переиздания диска: 1962/2015
Издатель (лейбл): Crazy Warthog Media
Продолжительность: 01:02:59
Наличие сканов в содержимом раздачи: Нет

Контейнер: FLAC (*.flac)
Тип рипа: tracks
Разрядность: 24/44,1
Количество каналов: 2.0

Источник (релизер): Qobuz

Лог проверки качества
foobar2000 1.4.3 / Dynamic Range Meter 1.1.1
log date: 2020-01-23 17:17:14

--------------------------------------------------------------------------------
Analyzed: Art Blakey / Three Blind Mice Vol.2
--------------------------------------------------------------------------------

DR         Peak         RMS     Duration Track
--------------------------------------------------------------------------------
DR13      -1.44 dB   -17.82 dB     13:27 01, 01-It's Only a Paper Moon
DR13      -0.80 dB   -17.23 dB     12:31 02, 02-Mosaic
DR13      -1.55 dB   -18.38 dB     12:25 03, 03-Ping Pong
DR13      -1.49 dB   -17.81 dB     13:14 04, 04-The Promised Land
DR13      -1.38 dB   -19.18 dB     11:26 05, 05-Arabia
--------------------------------------------------------------------------------

Number of tracks:  5
Official DR value: DR13

Samplerate:        44100 Hz
Channels:          2
Bits per sample:   24
Bitrate:           1679 kbps
Codec:             FLAC
================================================================================
Приватный:
Нет (DHT включён)
Размер:
731.01 Мб (766,524,328 байт) » файлов: 9
Участники:
24 раздают, 0 качают (24 участников всего)
Внешние участники:
--- [ Обновить ]
Есть вопросы - пишите личное сообщение пользователю M0p94ok.
23:36
23
Нет комментариев. Ваш будет первым!