Поиск

2018 Reto Anneler - Stille Post {QFTF} [24-44,1]

2018 Reto Anneler - Stille Post {QFTF} [24-44,1]
Стили:
Носитель:
WEB
Формат:
PCM
Тип рипа:
tracks
Контейнер:
FLAC (*.flac)
Количество каналов:
2.0
Разрядность/ЧД:
24/44,1
Время звучания:
00:42:38
Наличие сканов:
только обложка
Наличие водяных знаков:
нет
Страна-производитель диска (релиза):
USA
Треклист:

01. Cuche  04:58
02. Etwas kürzer  07:09
03. Nurnshgel  02:39
04. Neineineinein  05:44
05. Stille Post 1  02:12
06. Wurzelbehandlung  05:48
07. Stille Post 4  01:45
08. Befreiungsschlag  04:37
09. Stille Post 3  02:20
10. Erziehungsraetsel  05:26

Лог проверки качества
foobar2000 1.3.16 / Dynamic Range Meter 1.1.1
log date: 2018-11-19 20:01:20

--------------------------------------------------------------------------------
Analyzed: Reto Anneler / Stille Post
--------------------------------------------------------------------------------

DR         Peak         RMS     Duration Track
--------------------------------------------------------------------------------
DR10      -1.01 dB   -13.15 dB      4:59 01-Cuche
DR12      -1.01 dB   -14.85 dB      7:09 02-Etwas kurzer
DR11      -1.01 dB   -14.53 dB      2:40 03-Nurnshgel
DR10      -1.01 dB   -13.25 dB      5:44 04-Neineineinein
DR11      -1.01 dB   -17.08 dB      2:12 05-Stille Post 1
DR11      -1.01 dB   -14.00 dB      5:48 06-Wurzelbehandlung
DR12      -1.01 dB   -15.62 dB      1:46 07-Stille Post 4
DR10      -1.01 dB   -12.70 dB      4:37 08-Befreiungsschlag
DR14      -1.02 dB   -23.90 dB      2:21 09-Stille Post 3
DR10      -1.01 dB   -12.74 dB      5:27 10-Erziehungsraetsel
--------------------------------------------------------------------------------

Number of tracks:  10
Official DR value: DR11

Samplerate:        44100 Hz
Channels:          2
Bits per sample:   24
Bitrate:           1604 kbps
Codec:             FLAC
================================================================================
Приватный:
Нет (DHT включён)
Размер:
480.89 Мб (504,250,600 байт) » файлов: 12
Участники:
4 раздают, 0 качают (4 участников всего)
Внешние участники:
--- [ Обновить ]
Есть вопросы - пишите личное сообщение пользователю M0p94ok.
23:21
24
Нет комментариев. Ваш будет первым!