Поиск

2018 Hara Noda - The Sirens {Epidemic Sound} [24-48]

2018 Hara Noda - The Sirens {Epidemic Sound} [24-48]
Носитель:
WEB
Формат:
PCM
Тип рипа:
tracks
Контейнер:
FLAC (*.flac)
Количество каналов:
2.0
Разрядность/ЧД:
24/48
Формат записи/Источник записи:
[TR24][OF]
Время звучания:
00:18:01
Наличие сканов:
только обложка
Наличие водяных знаков:
нет
Релизёр (источник):
M0p94ok

Треклист:

1. The Sirens  03:35
2. Stone  04:01
3. Tender  03:00
4. Feathered  03:36
5. Swimmer  03:49

Лог проверки качества
foobar2000 1.3.16 / Dynamic Range Meter 1.1.1
log date: 2018-12-06 01:05:18

--------------------------------------------------------------------------------
Analyzed: Hara Noda / The Sirens
--------------------------------------------------------------------------------

DR         Peak         RMS     Duration Track
--------------------------------------------------------------------------------
DR10      -0.01 dB   -12.04 dB      3:36 01-The Sirens
DR11      -0.01 dB   -14.49 dB      4:01 02-Stone
DR9       -0.01 dB   -11.56 dB      3:01 03-Tender
DR10      -0.01 dB   -11.92 dB      3:36 04-Feathered
DR11      -0.01 dB   -14.26 dB      3:49 05-Swimmer
--------------------------------------------------------------------------------

Number of tracks:  5
Official DR value: DR10

Samplerate:        48000 Hz
Channels:          2
Bits per sample:   24
Bitrate:           1548 kbps
Codec:             FLAC
================================================================================
Приватный:
Нет (DHT включён)
Размер:
200.25 Мб (209,977,636 байт) » файлов: 7
Участники:
4 раздают, 0 качают (4 участников всего)
Внешние участники:
--- [ Обновить ]
Есть вопросы - пишите личное сообщение пользователю M0p94ok.
21:23
18
Нет комментариев. Ваш будет первым!