Поиск

2013 John Tchicai, Charlie Kohlhase, Garrison Fewell, Cecil McBee, Billy Hart - Tribal Ghost {NoBusiness} [24-44,1]

2013 John Tchicai, Charlie Kohlhase, Garrison Fewell, Cecil McBee, Billy Hart - Tribal Ghost {NoBusiness} [24-44,1]
Стили:
Треклист:

1 – Tribal Ghost
2 – The Queen Of Ra
3 – Dark Matter
4 – Llanto Del Indio
All compositions by Garrison Fewell except Llanto del Indio by John Tchicai
Recorded live on February 9th &10th, 2007 by Vernil Rogers

Доп. инфо:

Формат записи/Источник записи: [TR24][OF]
Наличие водяных знаков: Нет
Издание: Limited edition
Год издания/переиздания диска: 2013
Издатель (лейбл): NoBusiness Records
Продолжительность: 00:36:00
Наличие сканов в содержимом раздачи: Только обложка альбома (PDF)

Контейнер: FLAC (*.flac)
Тип рипа: tracks
Разрядность: 24/44,1
Формат: PCM
Количество каналов: 2.0

Источник (релизер): неизвестен (shiftingstill)

Лог проверки качества
foobar2000 1.4.6 / Замер динамического диапазона (DR) 1.1.1
Дата отчёта:  2020-01-24 08:43:19

--------------------------------------------------------------------------------
Анализ:   John Tchicai, Cecil McBee, Garrison Fewell, Charlie Kohlhase, Billy Hart / Tribal Ghost
--------------------------------------------------------------------------------

DR         Пики         RMS           Продолжительность трека
--------------------------------------------------------------------------------
DR12       0.00 дБ   -15.00 дБ      8:06 01-Tribal Ghost
DR11       0.00 дБ   -13.97 дБ     10:05 02-The Queen Of Ra
DR12       0.00 дБ   -15.77 дБ      5:31 03-Dark Matter
DR12       0.00 дБ   -14.57 дБ     12:17 04-Llanto Del Indio
--------------------------------------------------------------------------------

Количество треков: 4
Реальные значения DR: DR12

Частота:   44100 Гц
Каналов:   2
Разрядность:   24
Битрейт:   1402 кбит/с
Кодек:   FLAC
================================================================================
Приватный:
Нет (DHT включён)
Размер:
363.44 Мб (381,090,710 байт) » файлов: 7
Участники:
0 раздают, 0 качают (0 участников всего)
Внешние участники:
1 раздают, 0 качают (1 участников всего) [ Обновить ]
Есть вопросы - пишите личное сообщение пользователю M0p94ok.
18:30
16
Нет комментариев. Ваш будет первым!