Поиск

2018 Olivier Holland - The Big Ticket {Timezone TZ1550} [24-96]

2018 Olivier Holland - The Big Ticket {Timezone TZ1550} [24-96]
Стили:
Издатель (лейбл):
Треклист:

01. Mister Bombastic (5:30)
02. TingTingTing (6:13)
03. BassLade (4:52)
04. A New Day For A New Diet (4:44)
05. Road Kill (6:03)
06. Gez Aba Ein Ouzo (4:42)
07. Big Ticket (5:09)
08. Medley: Cliff Walk / Oli's Blues (6:31)

Доп. инфо:

Формат записи/Источник записи: [TR24][OF]
Наличие водяных знаков: Нет
Год издания/переиздания диска: 2018
Продолжительность: 43:44
Наличие сканов в содержимом раздачи: Только обложка альбома

Контейнер: FLAC (*.flac)
Тип рипа: tracks
Разрядность: 24/96
Формат: PCM
Количество каналов: 2.0

Источник: highresaudio.com

Лог проверки качества
foobar2000 1.3.9 / Dynamic Range Meter 1.1.1
log date: 2020-01-24 02:02:52

--------------------------------------------------------------------------------
Analyzed: Olivier Holland / The Big Ticket
--------------------------------------------------------------------------------

DR         Peak         RMS     Duration Track
--------------------------------------------------------------------------------
DR9       -0.10 dB   -11.21 dB      5:30 01-Mister Bombastic
DR9       -0.10 dB   -12.90 dB      6:13 02-TingTingTing
DR12      -0.10 dB   -15.34 dB      4:52 03-BassLade
DR9       -0.10 dB   -11.47 dB      4:44 04-A New Day For A New Diet
DR12      -0.10 dB   -17.39 dB      6:03 05-Road Kill
DR10      -0.10 dB   -11.80 dB      4:42 06-Gez Aba Ein Ouzo
DR9       -0.10 dB   -10.50 dB      5:09 07-Big Ticket
DR11      -0.10 dB   -13.44 dB      6:31 08-Medley: Cliff Walk / Oli's Blues
--------------------------------------------------------------------------------

Number of tracks:  8
Official DR value: DR10

Samplerate:        96000 Hz
Channels:          2
Bits per sample:   24
Bitrate:           1799 kbps
Codec:             FLAC
================================================================================
Приватный:
Нет (DHT включён)
Размер:
784.03 Мб (822,110,525 байт) » файлов: 11
Участники:
17 раздают, 1 качают (18 участников всего)
Внешние участники:
2 раздают, 1 качают (3 участников всего) [ Обновить ]
Есть вопросы - пишите личное сообщение пользователю M0p94ok.
15:13
19
Нет комментариев. Ваш будет первым!