Вы используете незарегистрированную версию компонента "Вкладки"!

Поиск

2018 Eraldo Bernocchi - Like a Fire That Consumes All Before It {RareNoise} [24-48]

2018 Eraldo Bernocchi - Like a Fire That Consumes All Before It {RareNoise} [24-48]
Стили:
Место записи:
Transmutations Studios, London
Дата издания диска:
30 ноября 2018
Номер по каталогу:
RNR 099
Носитель:
WEB
Формат:
PCM
Тип рипа:
tracks+.cue
Контейнер:
FLAC (*.flac)
Количество каналов:
2.0
Разрядность/ЧД:
24/48
Время звучания:
01:13:09
Наличие сканов:
web
Страна-производитель диска (релиза):
UK
Релизёр (источник):
M0p94ok
Лог проверки качества
foobar2000 1.4.3 / Dynamic Range Meter 1.1.1
log date: 2020-03-02 14:55:20

--------------------------------------------------------------------------------
Analyzed: Eraldo Bernocchi / Like a Fire That Consumes All Before It
--------------------------------------------------------------------------------

DR         Peak         RMS     Duration Track
--------------------------------------------------------------------------------
DR8       -0.30 dB   -11.67 dB      4:30 01-Meet Me Where You Know
DR10      -0.30 dB   -14.30 dB      2:37 02-To Make Things Float
DR9       -0.30 dB   -12.98 dB      2:30 03-From a Distance
DR8       -0.30 dB   -11.34 dB      3:19 04-White
DR8       -0.30 dB   -11.10 dB      2:56 05-The Silver Laugh
DR9       -0.30 dB   -12.28 dB      3:35 06-A Child and a Pencil
DR10      -0.30 dB   -11.38 dB      2:46 07-The Gold House
DR8       -0.30 dB   -11.10 dB      5:35 08-Like I Wasn't There
DR8       -0.30 dB   -10.57 dB      3:48 09-A Letter and a Place
DR9       -0.30 dB   -12.86 dB      3:06 10-The Never Ending Pier
DR8       -0.30 dB   -11.99 dB      5:24 11-1-10' of Happiness
DR8       -0.30 dB   -10.96 dB      2:30 12-Swirling Colours
DR9       -0.30 dB   -12.88 dB      5:11 13-We Had a Good Time
DR8       -0.30 dB   -10.29 dB      5:12 14-A Crack in Time
DR7       -0.30 dB   -10.27 dB      5:28 15-The Space Between
DR7       -0.30 dB   -10.64 dB      5:42 16-Out in the Blue
DR8       -0.30 dB   -10.09 dB      3:50 17-Like I Wasn't There (Reprise) (Reprise)
DR6       -0.30 dB    -9.04 dB      5:20 18-Near by Distance
--------------------------------------------------------------------------------

Number of tracks:  18
Official DR value: DR8

Samplerate:        48000 Hz
Channels:          2
Bits per sample:   24
Bitrate:           1217 kbps
Codec:             FLAC
================================================================================
Any questions - support@pro-jazz.com. Есть вопросы - support@pro-jazz.com
15:04
291
Нет комментариев. Ваш будет первым!