Поиск

2016 Olivier Holland feat. Joscho Stephan - Gypsy Meets Groove {Timezone} [24-44,1]

2016 Olivier Holland feat. Joscho Stephan - Gypsy Meets Groove {Timezone} [24-44,1]
Стили:
Треклист:

01. Out Of Nowhere (4:17)
02. Song For Eore (6:38)
03. All Blues (6:47)
04. Smile (3:59)
05. Don't Look Any Further (4:39)
06. La Vie en Rose (4:58)
07. Somewhere Over The Rainbow (6:10)
08. Chameleon (5:25)
09. Yardbird Suite (5:16)
10. Bye Bye Blackbird (4:42)

Доп. инфо:

Формат записи/Источник записи: [TR24][OF]
Наличие водяных знаков: Нет
Год издания/переиздания диска: 2016
Издатель (лейбл): Timezone Records
Продолжительность: 52:49
Наличие сканов в содержимом раздачи: Только обложка альбома

Контейнер: FLAC (*.flac)
Тип рипа: tracks
Разрядность: 24/44,1
Формат: PCM
Количество каналов: 2.0

Источник: highresaudio.com

Лог проверки качества
foobar2000 1.3.9 / Dynamic Range Meter 1.1.1
log date: 2020-01-24 02:13:25

--------------------------------------------------------------------------------
Analyzed: Olivier Holland feat. Joscho Stephan / Gypsy Meets Groove
--------------------------------------------------------------------------------

DR         Peak         RMS     Duration Track
--------------------------------------------------------------------------------
DR8       -0.30 dB   -10.61 dB      4:17 01-Out Of Nowhere
DR8       -0.30 dB   -11.82 dB      6:38 02-Song For Eore
DR9       -0.30 dB   -11.26 dB      6:47 03-All Blues
DR10      -0.30 dB   -13.23 dB      3:59 04-Smile
DR8       -0.30 dB   -10.70 dB      4:39 05-Don't Look Any Further
DR8       -0.30 dB   -11.21 dB      4:58 06-La Vie en Rose
DR9       -0.30 dB   -11.67 dB      6:10 07-Somewhere Over The Rainbow
DR8       -0.30 dB   -10.32 dB      5:25 08-Chameleon
DR9       -0.30 dB   -10.68 dB      5:16 09-Yardbird Suite
DR9       -0.30 dB   -11.64 dB      4:42 10-Bye Bye Blackbird
--------------------------------------------------------------------------------

Number of tracks:  10
Official DR value: DR9

Samplerate:        44100 Hz
Channels:          2
Bits per sample:   24
Bitrate:           1325 kbps
Codec:             FLAC
================================================================================
Приватный:
Нет (DHT включён)
Размер:
557.96 Мб (585,058,807 байт) » файлов: 13
Участники:
34 раздают, 0 качают (34 участников всего)
Внешние участники:
5 раздают, 1 качают (6 участников всего) [ Обновить ]
Есть вопросы - пишите личное сообщение пользователю M0p94ok.
23:59
27
Нет комментариев. Ваш будет первым!