Поиск

2018 Mikkel Nordsø Quintet - Out There {Stunt STUCD 18092} [24-88,2]

2018 Mikkel Nordsø Quintet - Out There {Stunt STUCD 18092} [24-88,2]
Стили:
Издатель (лейбл):
Номер по каталогу:
STUCD 18092
Носитель:
WEB
Формат:
PCM
Тип рипа:
tracks
Контейнер:
FLAC (*.flac)
Количество каналов:
2.0
Разрядность/ЧД:
24/88,2
Формат записи/Источник записи:
[TR24][OF]
Время звучания:
00:55:20
Наличие сканов:
только обложка
Наличие водяных знаков:
нет
Страна-производитель диска (релиза):
Denmark
Релизёр (источник):
M0p94ok
Треклист:

1    Take Off    7:02
2    Out There    12:15
3    Floating Squaw    8:49
4    Rock Train    10:17
5    Next To The Mountain    10:35
6    Sweet Silence    6:23

Лог проверки качества
foobar2000 1.4.3 / Dynamic Range Meter 1.1.1
log date: 2020-03-01 22:52:14

--------------------------------------------------------------------------------
Analyzed: Mikkel Nordsø Quintet / Out There
--------------------------------------------------------------------------------

DR         Peak         RMS     Duration Track
--------------------------------------------------------------------------------
DR8        0.00 dB    -9.11 dB      7:02 01-Take Off
DR7       -0.01 dB    -8.71 dB     12:15 02-Out There
DR6       -0.01 dB    -8.58 dB      8:49 03-Floating Squaw
DR8       -0.01 dB   -10.42 dB     10:17 04-Rock Train
DR8       -0.41 dB   -10.16 dB     10:35 05-Next To The Mountain
DR8        0.00 dB   -10.77 dB      6:23 06-Sweet Silence
--------------------------------------------------------------------------------

Number of tracks:  6
Official DR value: DR8

Samplerate:        88200 Hz
Channels:          2
Bits per sample:   24
Bitrate:           2978 kbps
Codec:             FLAC
================================================================================
Приватный:
Нет (DHT включён)
Размер:
1.12 Гб (1,204,965,582 байт) » файлов: 8
Участники:
4 раздают, 0 качают (4 участников всего)
Внешние участники:
--- [ Обновить ]
Скорость:
0/c 30.59 Кб/c
Есть вопросы - пишите личное сообщение пользователю M0p94ok.
23:07
24
Нет комментариев. Ваш будет первым!