Поиск

2019 Mike Westbrook - After Abbey Road {Westbrook} [24-44,1]

2019 Mike Westbrook - After Abbey Road {Westbrook} [24-44,1]
Стили:
Дата записи диска:
5 октября 1996
Место записи:
Gostenhofer Jazztage, Nuremberg
Дата издания диска:
27 сентября 2019
Носитель:
WEB
Формат:
PCM
Тип рипа:
tracks
Контейнер:
FLAC (*.flac)
Количество каналов:
2.0
Разрядность/ЧД:
24/44,1
Формат записи/Источник записи:
[TR24][OF]
Время звучания:
01:33:59
Наличие сканов:
буклет pdf
Наличие водяных знаков:
нет
Релизёр (источник):
рара1954
Треклист:

01. Come Together (5:28)
02. Something (8:05)
03. Maxwell's Silver Hammer (3:34)
04. Oh! Darling (4:47)
05. Octopus's Garden (3:55)
06. I Want You (She's So Heavy) (9:39)
07. Here Comes The Sun (15:41)
08. Because (13:26)
09. You Never Give Me Your Money (6:52)
10. Sun King (2:43)
11. Mean Mister Mustard (2:04)
12. Polythene Pam (1:43)
13. She Came In Through The Bathroom Window (2:37)
14. Golden Slumbers (3:49)
15. Carry That Weight (2:37)
16. The End (1:34)
17. She Loves You (5:24)

Доп. инфо:

Источник: qobuz.com

Лог проверки качества
foobar2000 1.3.9 / Dynamic Range Meter 1.1.1
log date: 2020-01-23 20:33:21

--------------------------------------------------------------------------------
Analyzed: Mike Westbrook / After Abbey Road: Celebrating The 50th Anniversary Of The Beatles' Classic
--------------------------------------------------------------------------------

DR         Peak         RMS     Duration Track
--------------------------------------------------------------------------------
DR10      -0.10 dB   -11.76 dB      5:28 01-Come Together
DR10      -0.10 dB   -13.80 dB      8:05 02-Something
DR12      -0.10 dB   -12.85 dB      3:34 03-Maxwell's Silver Hammer
DR10      -0.10 dB   -12.26 dB      4:47 04-Oh! Darling
DR15      -0.29 dB   -20.23 dB      3:55 05-Octopus's Garden
DR11      -0.10 dB   -13.98 dB      9:39 06-I Want You (She's So Heavy)
DR12      -0.10 dB   -17.08 dB     15:41 07-Here Comes The Sun
DR11      -0.10 dB   -15.10 dB     13:26 08-Because
DR10      -0.10 dB   -13.55 dB      6:52 09-You Never Give Me Your Money
DR13      -0.33 dB   -15.73 dB      2:43 10-Sun King
DR10      -0.10 dB   -11.25 dB      2:04 11-Mean Mister Mustard
DR9       -0.10 dB   -10.87 dB      1:43 12-Polythene Pam
DR10      -0.10 dB   -11.95 dB      2:37 13-She Came In Through The Bathroom Window
DR13      -0.10 dB   -15.74 dB      3:49 14-Golden Slumbers
DR9       -0.10 dB   -11.16 dB      2:37 15-Carry That Weight
DR11      -0.10 dB   -14.46 dB      1:34 16-The End
DR9       -0.10 dB   -12.59 dB      5:24 17-She Loves You
--------------------------------------------------------------------------------

Number of tracks:  17
Official DR value: DR11

Samplerate:        44100 Hz
Channels:          2
Bits per sample:   24
Bitrate:           1536 kbps
Codec:             FLAC
================================================================================
Приватный:
Нет (DHT включён)
Размер:
1.10 Гб (1,185,778,805 байт) » файлов: 21
Участники:
0 раздают, 1 качают (1 участников всего)
Внешние участники:
9 раздают, 3 качают (12 участников всего) [ Обновить ]
Скорость:
4.36 Мб/c 0/c
Есть вопросы - пишите личное сообщение пользователю M0p94ok.
15:15
21
Нет комментариев. Ваш будет первым!