Поиск

2017 Ramona Horvath - Lotus Blossom {Disques Black & Blue} [24-44,1]

2017 Ramona Horvath - Lotus Blossom {Disques Black & Blue} [24-44,1]
Дата издания диска:
17 ноября 2017
Издатель (лейбл):
Носитель:
WEB
Формат:
PCM
Тип рипа:
tracks
Контейнер:
FLAC (*.flac)
Количество каналов:
2.0
Разрядность/ЧД:
24/44,1
Время звучания:
00:54:23
Наличие сканов:
только обложка
Наличие водяных знаков:
нет
Релизёр (источник):
M0p94ok

Треклист:

01. Strange hats 05:51    
02. Black butterfly 05:22    
03. Lotus blossom 03:23    
04. Micutul valse 04:49    
05. Place Dauphine 04:06    
06. All the things you are 08:54    
07. They say it's wonderful 05:10    
08. In A flat 05:36    
09. I love you 04:02    
10. I'm old fashioned 06:52

Лог проверки качества
foobar2000 1.4.3 / Dynamic Range Meter 1.1.1
log date: 2020-03-01 12:57:54

--------------------------------------------------------------------------------
Analyzed: Ramona Horvath / Lotus Blossom
--------------------------------------------------------------------------------

DR         Peak         RMS     Duration Track
--------------------------------------------------------------------------------
DR13      -0.20 dB   -15.58 dB      5:53 01-Strange Hats
DR12      -0.40 dB   -14.67 dB      5:25 02-Black Butterfly
DR12      -0.21 dB   -17.25 dB      3:26 03-Lotus Blossom
DR11       0.00 dB   -12.83 dB      4:09 04-Place Dauphine
DR12      -0.21 dB   -15.00 dB      8:56 05-All The Things You Are
DR13      -0.20 dB   -16.09 dB      4:52 06-Micutul Valse
DR12      -0.20 dB   -13.61 dB      5:38 07-In A Flat
DR13      -0.75 dB   -16.61 dB      5:13 08-They Say It's Wonderful
DR12      -0.20 dB   -13.91 dB      4:04 09-I Love You
DR13      -0.31 dB   -16.37 dB      6:52 10-I'm Old Fashioned
--------------------------------------------------------------------------------

Number of tracks:  10
Official DR value: DR12

Samplerate:        44100 Hz
Channels:          2
Bits per sample:   24
Bitrate:           1552 kbps
Codec:             FLAC
================================================================================
Приватный:
Нет (DHT включён)
Размер:
573.65 Мб (601,514,122 байт) » файлов: 12
Участники:
17 раздают, 1 качают (18 участников всего)
Внешние участники:
--- [ Обновить ]
Есть вопросы - пишите личное сообщение пользователю M0p94ok.
13:08
33
Нет комментариев. Ваш будет первым!