Поиск

1962 Art Blakey - Three Blind Mice Vol 1 (2015) {Crazy Warthog Media} [24-44,1]

1962 Art Blakey - Three Blind Mice Vol 1 (2015) {Crazy Warthog Media} [24-44,1]
Стили:
Дата записи диска:
9 и 18 марта 1962
Место записи:
Ranaissance Club, Hollywood, CA
Треклист:

01 - Three Blind Mice 08:20
02 - Blue Moon 06:01
03 - That Old Feeling 06:36
04 - Plexis 05:51
05 - Up Jumped Spring 09:48
06 - Up Jumped Spring (alt tk) 05:18
07 - When Lights Are Low 04:11
08 - Children of the Night 08:13

Доп. инфо:

Формат записи/Источник записи: [TR24][OF]
Издание: Reissue
Год издания/переиздания диска: 1962/2015
Издатель (лейбл): Crazy Warthog Media
Продолжительность: 00:54:18
Наличие сканов в содержимом раздачи: Нет

Контейнер: FLAC (*.flac)
Тип рипа: tracks
Разрядность: 24/44,1
Количество каналов: 2.0

Источник (релизер): Qobuz

Лог проверки качества
foobar2000 1.4.3 / Dynamic Range Meter 1.1.1
log date: 2020-01-23 16:07:56

--------------------------------------------------------------------------------
Analyzed: Art Blakey / Three Blind Mice Vol.1
--------------------------------------------------------------------------------

DR         Peak         RMS     Duration Track
--------------------------------------------------------------------------------
DR14      -0.74 dB   -18.25 dB      8:20 01, 01-Three Blind Mice
DR13      -1.81 dB   -19.59 dB      6:02 02, 02-Blue Moon
DR18      -1.15 dB   -21.97 dB      6:37 03, 03-That Old Feeling
DR13      -1.38 dB   -18.25 dB      5:51 04, 04-Plexis
DR16      -1.81 dB   -20.19 dB      9:48 05, 05-Up Jumped Spring
DR16      -1.11 dB   -20.66 dB      5:19 06, 06-Up Jumped Spring (alt tk)
DR13      -1.31 dB   -17.95 dB      4:11 07, 07-When Lights Are Low
DR13      -0.94 dB   -16.97 dB      8:13 08, 08-Children of the Night
--------------------------------------------------------------------------------

Number of tracks:  8
Official DR value: DR15

Samplerate:        44100 Hz
Channels:          2
Bits per sample:   24
Bitrate:           1594 kbps
Codec:             FLAC
================================================================================
Приватный:
Нет (DHT включён)
Размер:
584.12 Мб (612,492,370 байт) » файлов: 12
Участники:
29 раздают, 0 качают (29 участников всего)
Внешние участники:
10 раздают, 3 качают (13 участников всего) [ Обновить ]
Есть вопросы - пишите личное сообщение пользователю M0p94ok.
11:17
22
Нет комментариев. Ваш будет первым!