Поиск

2018 Papik - Little Songs for Big Elevators {Irma IRM 1698} [24-44,1]

2018 Papik - Little Songs for Big Elevators {Irma IRM 1698} [24-44,1]
Номер по каталогу:
IRM 1698
Носитель:
WEB
Формат:
PCM
Тип рипа:
tracks
Контейнер:
FLAC (*.flac)
Количество каналов:
2.0
Разрядность/ЧД:
24/44,1
Время звучания:
01:52:27
Наличие сканов:
только обложка
Наличие водяных знаков:
нет
Страна-производитель диска (релиза):
Italy
Релизёр (источник):
M0p94ok

Треклист:

CD 1
01. Cold as Fire - Neja  03:51
02. Rien Que Je Changerais - Francesca Gramegna  04:06
03. Keep The Fire Higher - Frankie Lovecchio  03:37
04. No Doubts Left - Walter Ricci  02:53
05. MMM MMM MMM - Marta Capponi  03:32
06. Nevermore - Alfredo Malabello  03:13
07. Her Name Is - Alan Scaffardi  04:07
08. I Feel Fine - Erika Scherlin  04:05
09. Soul Town - Gazzara  03:51
10. Just For One Day - Alan Scaffardi  04:46
11. Voce Me Apareceu - Francesca Gramegna  02:51
12. Anyway You Want - Alex Sammarini  04:09
13. In Fondo Ai Tuoi Occhi - Sara Galimberti  04:08
14. L'Aventure - Ida Landsberg  03:02
15. Grace  03:03
16. Black Hole Sun - Nadia Straccia  03:55
17. The Moonlight On Your Face - Alan Scaffardi  03:15
CD 2
01. Never Knew Love Like This Before - Ronnie Jones  04:23
02. You Got Me Wrong - Ely Bruna  04:56
03. Get On - Anduze  02:10
04. One Hundred Way - Kenneth Bailey  03:45
05. I Just Wanna Let You Know - Simona Bencini  03:59
06. I Really Feel You So - Sarah Jane Morris  03:49
07. Baby It's Over - Andrea Veschini  02:54
08. Touch The Sky - The Soultrend Orchestra  04:54
09. Love Exists - Dagmar Segbers  04:15
10. Justice Or Cospiracy - Anduze  03:38
11. You Are All That I Ever Wanted - Kenneth Bailey  04:26
12. Everytime I Look At You - Letizia Liberati  03:33
13. Wishing Well - Frankie Pearl  03:21

Лог проверки качества
foobar2000 1.3.16 / Dynamic Range Meter 1.1.1
log date: 2018-11-24 01:58:49

--------------------------------------------------------------------------------
Analyzed: Papik / Little Songs for Big Elevators
--------------------------------------------------------------------------------

DR         Peak         RMS     Duration Track
--------------------------------------------------------------------------------
DR9       -1.02 dB   -11.89 dB      3:52 01-Cold as Fire (feat. Neja)
DR11      -1.02 dB   -13.27 dB      4:07 02-Rien que je changerais (feat. Francesca Gramegna)
DR10      -1.02 dB   -12.60 dB      3:37 03-Keep the Fire Higher (feat. Frankie Lovecchio)
DR10      -1.02 dB   -13.58 dB      2:54 04-No Doubts Left (feat. Walter Ricci)
DR10      -1.02 dB   -12.74 dB      3:33 05-MMM MMM MMM MMM (feat. Marta Capponi)
DR12      -1.41 dB   -15.40 dB      3:14 06-Nevermore (feat. Alfredo Malabello)
DR11      -1.02 dB   -12.60 dB      4:08 07-Her Name Is (feat. Alan Scaffardi)
DR10      -1.02 dB   -13.31 dB      4:05 08-I Feel Fine (feat. Erika Scherlin)
DR10      -1.02 dB   -12.39 dB      3:51 09-Soul Town (feat. Gazzara)
DR11      -1.02 dB   -13.42 dB      4:46 10-Just for One Day (feat. Alan Scaffardi)
DR11      -1.02 dB   -13.71 dB      2:51 11-Voce Me Apareceu (feat. Francesca Gramegna)
DR12      -1.02 dB   -14.11 dB      4:10 12-Anyway You Want To (feat. Alex Sammarini)
DR11      -1.08 dB   -13.23 dB      4:09 13-In fondo ai tuoi occhi (feat. Sara Galimberti)
DR11      -1.02 dB   -13.29 dB      3:03 14-L'aventure (feat. Ida Landsberg) [Borsalino]
DR11      -2.74 dB   -17.32 dB      3:03 15-Grace
DR9       -1.02 dB   -11.49 dB      4:24 16-Never Knew Love LikeThis Before (feat. Ronnie Jones)
DR9       -1.02 dB   -11.58 dB      4:56 17-You Got Me Wrong (feat. Ely Bruna)
DR10      -1.02 dB   -12.78 dB      2:11 18-Get On (feat. Anduze)
DR10      -1.02 dB   -12.92 dB      3:46 19-One Hundred Ways (feat. Kenn Bailey)
DR10      -1.02 dB   -12.06 dB      4:00 20-I Just Wanna Let You Know (feat. Simona Bencini)
DR10      -1.01 dB   -13.00 dB      3:49 21-I Really Feel You So (feat. Sarah Jane Morris)
DR10      -1.02 dB   -13.29 dB      2:55 22-Baby It's Over (feat. Andrea Veschini)
DR11      -1.02 dB   -13.02 dB      4:54 23-Touch the Sky (feat. The Soultrend Orchestra)
DR11      -1.02 dB   -13.28 dB      4:16 24-Love Exists (feat. Dagmar Segbers)
DR10      -1.02 dB   -11.54 dB      3:56 25-Black Hole Sun (feat. Nadia Straccia)
DR11      -1.02 dB   -14.30 dB      3:39 26-Justice or Cospiracy (feat. Anduze)
DR10      -1.02 dB   -11.84 dB      4:26 27-You Are All That I Ever Wanted (feat. Kenn Bailey)
DR10      -1.02 dB   -12.57 dB      3:16 28-The Moonlight on Your Face (feat. Alan Scaffardi)
DR10      -1.02 dB   -12.71 dB      3:33 29-Everytime I Look at You (feat. Letizia Liberati)
DR11      -1.02 dB   -13.00 dB      3:22 30-Wishing Well (feat. Frankie Pearl)
--------------------------------------------------------------------------------

Number of tracks:  30
Official DR value: DR10

Samplerate:        44100 Hz
Channels:          2
Bits per sample:   24
Bitrate:           1571 kbps
Codec:             FLAC
================================================================================
Приватный:
Нет (DHT включён)
Размер:
1.25 Гб (1,337,595,430 байт) » файлов: 32
Участники:
20 раздают, 1 качают (21 участников всего)
Внешние участники:
--- [ Обновить ]
Есть вопросы - пишите личное сообщение пользователю M0p94ok.
01:28
24
Нет комментариев. Ваш будет первым!