Поиск

2020 Yelena Eckemoff - Nocturnal Animals {L&H} [24-96]

2020 Yelena Eckemoff - Nocturnal Animals {L&H} [24-96]
Дата записи диска:
16-17 апреля 2018
Место записи:
Rainbow Studios, Oslo, Norway
Дата издания диска:
24 января 2020
Треклист:

01. Cicada (6:59)
02. Bat (6:15)
03. Walkingstick (4:05)
04. Fox (4:51)
05. Grizzly Bear (5:39)
06. Rattlesnake (9:43)
07. Wolf (7:42)
08. Hedgehog (4:24)
09. Toad (7:41)
10. Lynx (4:37)
11. Scorpion (4:35)
12. Firefly (6:22)
13. Owl (6:09)
14. Sea Turtle (8:24)

Доп. инфо:

Формат записи/Источник записи: [TR24][OF]
Наличие водяных знаков: Нет
Год издания: 2020
Издатель (лейбл): L & H Production HD
Продолжительность: 01:27:19
Наличие сканов в содержимом раздачи: Только обложка альбома
Контейнер: FLAC (*.flac)
Тип рипа: tracks
Разрядность: 24/96
Формат: PCM
Количество каналов: 2.0
Источник (релизер): qobuz.com

Лог проверки качества
foobar2000 1.4.8 / Dynamic Range Meter 1.1.1
log date: 2020-01-23 18:37:44

--------------------------------------------------------------------------------
Analyzed: Yelena Eckemoff feat. Arild Andersen, Jon Christensen & Thomas Stronen / Nocturnal Animals
--------------------------------------------------------------------------------

DR         Peak         RMS     Duration Track
--------------------------------------------------------------------------------
DR10      -0.80 dB   -13.37 dB      6:59 01-Cicada
DR9       -0.80 dB   -11.99 dB      6:15 02-Bat
DR11      -0.80 dB   -14.52 dB      4:05 03-Walkingstick
DR9       -0.80 dB   -11.79 dB      4:51 04-Fox
DR10      -0.80 dB   -12.97 dB      5:39 05-Grizzly Bear
DR11      -0.80 dB   -15.47 dB      9:43 06-Rattlesnake
DR9       -0.80 dB   -13.77 dB      7:42 07-Wolf
DR8       -0.80 dB   -11.18 dB      4:24 08-Hedgehog
DR10      -0.80 dB   -13.72 dB      7:41 09-Toad
DR9       -0.80 dB   -11.40 dB      4:37 10-Lynx
DR10      -0.80 dB   -14.17 dB      4:35 11-Scorpion
DR11      -0.80 dB   -14.68 dB      6:22 12-Firefly
DR9       -0.80 dB   -12.24 dB      6:09 13-Owl
DR9       -0.80 dB   -12.90 dB      8:24 14-Sea Turtle
--------------------------------------------------------------------------------

Number of tracks:  14
Official DR value: DR10
Samplerate:        96000 Hz
Channels:          2
Bits per sample:   24
Bitrate:           2852 kbps
Codec:             FLAC
================================================================================
Приватный:
Нет (DHT включён)
Размер:
1.74 Гб (1,872,152,208 байт) » файлов: 16
Участники:
0 раздают, 1 качают (1 участников всего)
Внешние участники:
17 раздают, 5 качают (22 участников всего) [ Обновить ]
Скорость:
4.13 Мб/c 0/c
Есть вопросы - пишите личное сообщение пользователю M0p94ok.
01:12
24
Нет комментариев. Ваш будет первым!