Вы используете незарегистрированную версию компонента "Вкладки"!

Поиск

2015 Iris Bergcrantz - Different Universe (2019) {Vanguard Music Boulevard} [24-48]

2015 Iris Bergcrantz - Different Universe (2019) {Vanguard Music Boulevard} [24-48]
Стили:
Доп. инфо:

Формат записи/Источник записи: [TR24][OF]
Наличие водяных знаков: Нет
Год издания/переиздания диска: 2015/2019
Издатель (лейбл): Vanguard Music Boulevard
Продолжительность: 35:20
Наличие сканов в содержимом раздачи: Только обложка альбома

Контейнер: FLAC (*.flac)
Тип рипа: tracks
Разрядность: 24/48
Формат: PCM
Количество каналов: 2.0

Источник: highresaudio.com

Лог проверки качества
foobar2000 1.3.9 / Dynamic Range Meter 1.1.1
log date: 2020-01-24 13:54:41

--------------------------------------------------------------------------------
Analyzed: Iris Bergcrantz / Different Universe
--------------------------------------------------------------------------------

DR         Peak         RMS     Duration Track
--------------------------------------------------------------------------------
DR8       -0.10 dB   -11.97 dB      6:40 01-If You Fail, I'll Always Stay
DR11      -1.21 dB   -15.85 dB      0:35 02-Aurora's Anthem
DR7       -0.14 dB    -8.32 dB      7:35 03-Time Was Spent
DR8       -0.04 dB    -9.40 dB      7:40 04-They Say...
DR7       -0.10 dB    -9.58 dB     12:51 05-Different Universe
--------------------------------------------------------------------------------

Number of tracks:  5
Official DR value: DR8

Samplerate:        48000 Hz
Channels:          2
Bits per sample:   24
Bitrate:           1793 kbps
Codec:             FLAC
================================================================================
Any questions - support@pro-jazz.com. Есть вопросы - support@pro-jazz.com
14:28
250
Нет комментариев. Ваш будет первым!