Поиск

2017 Richard Galliano & Thierry Escaich - Aria {Jade 6998962} [24-96]

2017 Richard Galliano & Thierry Escaich - Aria {Jade 6998962} [24-96]
Место записи:
Église Réformée de Berne
Дата издания диска:
27 апреля 2018
Номер по каталогу:
6998962
Носитель:
WEB
Формат:
PCM
Тип рипа:
tracks
Контейнер:
FLAC (*.flac)
Количество каналов:
2.0
Разрядность/ЧД:
24/96
Время звучания:
01:07:29
Наличие сканов:
только обложка
Наличие водяных знаков:
нет
Релизёр (источник):
M0p94ok

Треклист:

01    Aria    4:09
02    Caruso    5:33
03    La Follia    6:39
04    Giselle    4:45
05    Nostalgy    4:12
06    Jeannette    3:51
07    Adagio    5:34
08    Oblivion    7:44
09    Siciliano    5:02
10    Slovanské Tance    4:34
11    Tango pour Claude    4:51
12    Tanti anni prima    4:45
13    Vocalise    5:50

Лог проверки качества
foobar2000 1.4.3 / Dynamic Range Meter 1.1.1
log date: 2020-03-03 14:50:05

--------------------------------------------------------------------------------
Analyzed: Richard Galliano, Thierry Escaich / Aria
--------------------------------------------------------------------------------

DR         Peak         RMS     Duration Track
--------------------------------------------------------------------------------
DR12      -2.20 dB   -20.06 dB      4:07 01-Aria
DR13      -0.59 dB   -18.58 dB      5:33 02-Caruso
DR10      -0.11 dB   -14.93 dB      6:39 03-La Follia
DR13      -0.11 dB   -17.82 dB      4:46 04-Giselle
DR12      -2.08 dB   -18.76 dB      4:12 05-Nostalgy
DR13      -0.37 dB   -18.11 dB      3:51 06-Jeannette
DR13      -0.51 dB   -21.22 dB      5:35 07-Adagio
DR14      -0.11 dB   -18.73 dB      7:45 08-Oblivion
DR12      -7.08 dB   -23.69 dB      5:02 09-Siciliano
DR12      -2.00 dB   -18.69 dB      4:35 10-Slovanské Tance
DR13      -0.11 dB   -17.98 dB      4:52 11-Tango pour Claude
DR12      -4.13 dB   -20.85 dB      4:45 12-Tanti anni prima
DR11      -3.83 dB   -19.32 dB      5:50 13-Vocalise
--------------------------------------------------------------------------------

Number of tracks:  13
Official DR value: DR12

Samplerate:        96000 Hz
Channels:          2
Bits per sample:   24
Bitrate:           2408 kbps
Codec:             FLAC
================================================================================
Приватный:
Нет (DHT включён)
Размер:
1.16 Гб (1,244,835,135 байт) » файлов: 15
Участники:
8 раздают, 1 качают (9 участников всего)
Внешние участники:
--- [ Обновить ]
Скорость:
779.27 Кб/c 0/c
Есть вопросы - пишите личное сообщение пользователю M0p94ok.
17:25
26
Нет комментариев. Ваш будет первым!